×

¿Problemas para descargar con Mozilla, EDGE? Deshabilita la opción "Abrir vinculos en una pestaña nueva" tal como lo muestra ésta imagen.

The Deuce (2017) Temporada 1 1080p Latino

1.401 vistas

Información de The Deuce (2017) Temporada 1 1080p Latino

Datos de la película

  • Calidad: 1080p
  • Audio: Español Latino DTS 2.0 BLURAY - Ingles DTS 5.1 BLURAY
  • Subtitulos: Español Latino PGS - Ingles PGS
  • Resolución: 1920x1080
  • Formato: MKV
  • Codec: H.264
  • Encoder: cinemaniahdd
  • Mediainfo: Clic para Mostrar Datos Ver
  • The Deuce T01E02 1080p Latino.mkv
    Format                      : Matroska
    Format version              : Version 4
    File size                   : 4.70 GiB
    Duration                    : 58 min 55 s
    Overall bit rate            : 11.4 Mb/s
    Movie name                  : The Deuce T01E02 -CinemaniaHDD.Net
    Encoded date                : UTC 2019-10-02 22:44:40
    Writing application         : mkvmerge v35.0.0 ('All The Love In The World') 64-bit
    Writing library             : libebml v1.3.9 + libmatroska v1.5.2

    Video
    ID                          : 1
    Format                      : AVC
    Format/Info                 : Advanced Video Codec
    Format profile              : High@L4.1
    Format settings             : CABAC / 4 Ref Frames
    Format settings, CABAC      : Yes
    Format settings, ReFrames   : 4 frames
    Codec ID                    : V_MPEG4/ISO/AVC
    Duration                    : 58 min 55 s
    Bit rate                    : 9 107 kb/s
    Width                       : 1 920 pixels
    Height                      : 1 080 pixels
    Display aspect ratio        : 16:9
    Frame rate mode             : Constant
    Frame rate                  : 23.976 (24000/1001) FPS
    Color space                 : YUV
    Chroma subsampling          : 4:2:0
    Bit depth                   : 8 bits
    Scan type                   : Progressive
    Bits/(Pixel*Frame)          : 0.183
    Stream size                 : 3.75 GiB (80%)
    Title                       : CinemaniaHDD
    Writing library             : x264 core 155 r2901 7d0ff22
    Encoding settings           : cabac=1 / ref=4 / deblock=1:0:0 / analyse=0x3:0x133 / me=umh / subme=7 / psy=1 / psy_rd=1.00:0.00 / mixed_ref=1 / me_range=16 / chroma_me=1 / trellis=1 / 8x8dct=1 / cqm=0 / deadzone=21,11 / fast_pskip=0 / chroma_qp_offset=-2 / threads=24 / lookahead_threads=4 / sliced_threads=0 / nr=0 / decimate=1 / interlaced=0 / bluray_compat=0 / constrained_intra=0 / bframes=3 / b_pyramid=2 / b_adapt=1 / b_bias=0 / direct=1 / weightb=1 / open_gop=0 / weightp=2 / keyint=250 / keyint_min=23 / scenecut=40 / intra_refresh=0 / rc_lookahead=40 / rc=2pass / mbtree=1 / bitrate=9107 / ratetol=1.0 / qcomp=0.60 / qpmin=0 / qpmax=69 / qpstep=4 / cplxblur=20.0 / qblur=0.5 / ip_ratio=1.40 / aq=1:1.00
    Language                    : English
    Default                     : Yes
    Forced                      : No

    Audio #1
    ID                          : 2
    Format                      : DTS
    Format/Info                 : Digital Theater Systems
    Codec ID                    : A_DTS
    Duration                    : 58 min 55 s
    Bit rate mode               : Constant
    Bit rate                    : 768 kb/s
    Channel(s)                  : 2 channels
    Channel layout              : Lt Rt
    Sampling rate               : 48.0 kHz
    Frame rate                  : 93.750 FPS (512 SPF)
    Bit depth                   : 24 bits
    Compression mode            : Lossy
    Stream size                 : 324 MiB (7%)
    Title                       : Español latino [CinemaniaHDD]
    Language                    : Spanish
    Default                     : Yes
    Forced                      : No

    Audio #2
    ID                          : 3
    Format                      : DTS
    Format/Info                 : Digital Theater Systems
    Codec ID                    : A_DTS
    Duration                    : 58 min 55 s
    Bit rate mode               : Constant
    Bit rate                    : 1 509 kb/s
    Channel(s)                  : 6 channels
    Channel layout              : C L R Ls Rs LFE
    Sampling rate               : 48.0 kHz
    Frame rate                  : 93.750 FPS (512 SPF)
    Bit depth                   : 24 bits
    Compression mode            : Lossy
    Stream size                 : 636 MiB (13%)
    Title                       : Inglés [CinemaniaHDD]
    Language                    : English
    Default                     : No
    Forced                      : No

    Text #1
    ID                          : 4
    Format                      : PGS
    Muxing mode                 : zlib
    Codec ID                    : S_HDMV/PGS
    Codec ID/Info               : Picture based subtitle format used on BDs/HD-DVDs
    Duration                    : 57 min 41 s
    Bit rate                    : 49.0 kb/s
    Count of elements           : 2026
    Stream size                 : 20.2 MiB (0%)
    Title                       : Inglés [CinemaniaHDD]
    Language                    : English
    Default                     : No
    Forced                      : No

    Text #2
    ID                          : 5
    Format                      : PGS
    Muxing mode                 : zlib
    Codec ID                    : S_HDMV/PGS
    Codec ID/Info               : Picture based subtitle format used on BDs/HD-DVDs
    Duration                    : 57 min 39 s
    Bit rate                    : 48.3 kb/s
    Count of elements           : 1914
    Stream size                 : 19.9 MiB (0%)
    Title                       : Español latino [CinemaniaHDD]
    Language                    : Spanish
    Default                     : No
    Forced                      : No

     

  • Peso: 4.70 GiB C/U

Sinopsis

Serie de TV (2017-Actualidad). ‘The Deuce’ sigue la historia de la legalización y consolidación de la industria del porno en Times Square desde los inicios de los años 70 hasta mediados de los 80, explorando un turbulento mundo donde la aparición del SIDA, la expansión de la cocaína y el emergente mercado inmobiliario sacudieron a la ciudad entera.

CAPITULO 7 Y 8 ARREGLADOS

Ficha técnica

Video trailer de la película

Enlaces de descarga

Rip de Bluray

Descargar The Deuce (2017) Temporada 1 1080p Latino




Aportes de DPeliculasHDmega la pass es:dpeliculashdmega.org Aportes de CinemaniaHD la pass es:cinemaniahdd.com
Guardado en : Drama , HBO , HD 1080p , Series

Películas relacionadas

The Deuce (2017) Temporada 1 1080p Latino pelicula full hd, The Deuce (2017) Temporada 1 1080p Latino mega latino, The Deuce (2017) Temporada 1 1080p Latino 4k latino, The Deuce (2017) Temporada 1 1080p Latino pelicula completa, The Deuce (2017) Temporada 1 1080p Latino descargar gratis, descargar The Deuce (2017) Temporada 1 1080p Latino pelicula latino, The Deuce (2017) Temporada 1 1080p Latino 1 link mega, The Deuce (2017) Temporada 1 1080p Latino 1 link google drive, The Deuce (2017) Temporada 1 1080p Latino hd 1080p latino.
Comentarios 3
  • Santiago - 10 octubre, 2019

    Hola agradecer por la seria The Deuce muy buena pero los capitulos 7 y 8 estan con los audios cruzados.

  • sabbath66 - 10 octubre, 2019

    Gracias por el aporte, muy buena serie, solo un pequeño detalle, el audio de los capitulos 7 y 8 estan cruzados.

    Por favor les agradeceria mucho arreglarlo.

  • cranck_247 - 04 octubre, 2019

    SON LOS MEJORES, GRACIAS