×

¿Problemas para descargar con Mozilla, EDGE? Deshabilita la opción "Abrir vinculos en una pestaña nueva" tal como lo muestra ésta imagen.

The Descendants (2011) REMUX 1080p Latino – CMHDD

189 vistas

Información de The Descendants (2011) REMUX 1080p Latino – CMHDD

Datos de la película

  • Calidad:
  • Audio: Español Latino AC3 5.1 BLURAY - Ingles DTS 5.1 BLURAY
  • Subtitulos: Español Latino PGS
  • Resolución: 1920x1080p
  • Formato: MKV
  • Codec: H.264
  • Encoder: Dracarys
  • Mediainfo: Clic para Mostrar Datos Ver
  • Format                      : Matroska
    Format version              : Version 4
    File size                   : 20.6 GiB
    Duration                    : 1 h 55 min
    Overall bit rate mode       : Variable
    Overall bit rate            : 25.6 Mb/s
    Movie name                  : The Descendants (2011) REMUX 1080p Latino - CMHDD
    Encoded date                : UTC 2021-03-26 17:13:29
    Writing application         : mkvmerge v51.0.0 ('I Wish') 64-bit
    Writing library             : libebml v1.4.0 + libmatroska v1.6.2
    Cover                       : Yes
    Attachments                 : cover.jpg

    Video
    ID                          : 1
    ID in the original source m : 4113 (0x1011)
    Format                      : AVC
    Format/Info                 : Advanced Video Codec
    Format profile              : High@L4.1
    Format settings             : CABAC / 2 Ref Frames
    Format settings, CABAC      : Yes
    Format settings, Reference  : 2 frames
    Codec ID                    : V_MPEG4/ISO/AVC
    Duration                    : 1 h 55 min
    Bit rate                    : 21.9 Mb/s
    Width                       : 1 920 pixels
    Height                      : 1 080 pixels
    Display aspect ratio        : 16:9
    Frame rate mode             : Constant
    Frame rate                  : 23.976 (24000/1001) FPS
    Color space                 : YUV
    Chroma subsampling          : 4:2:0
    Bit depth                   : 8 bits
    Scan type                   : Progressive
    Bits/(Pixel*Frame)          : 0.441
    Stream size                 : 17.6 GiB (86%)
    Default                     : Yes
    Forced                      : No
    Original source medium      : Blu-ray

    Audio #1
    ID                          : 2
    ID in the original source m : 4354 (0x1102)
    Format                      : AC-3
    Format/Info                 : Audio Coding 3
    Commercial name             : Dolby Digital
    Codec ID                    : A_AC3
    Duration                    : 1 h 55 min
    Bit rate mode               : Constant
    Bit rate                    : 448 kb/s
    Channel(s)                  : 6 channels
    Channel layout              : L R C LFE Ls Rs
    Sampling rate               : 48.0 kHz
    Frame rate                  : 31.250 FPS (1536 SPF)
    Compression mode            : Lossy
    Delay relative to video     : 14 ms
    Stream size                 : 369 MiB (2%)
    Language                    : Spanish
    Service kind                : Complete Main
    Default                     : Yes
    Forced                      : No
    Original source medium      : Blu-ray

    Audio #2
    ID                          : 3
    ID in the original source m : 4352 (0x1100)
    Format                      : DTS XLL
    Format/Info                 : Digital Theater Systems
    Commercial name             : DTS-HD Master Audio
    Codec ID                    : A_DTS
    Duration                    : 1 h 55 min
    Bit rate mode               : Variable
    Bit rate                    : 3 183 kb/s
    Channel(s)                  : 6 channels
    Channel layout              : C L R Ls Rs LFE
    Sampling rate               : 48.0 kHz
    Frame rate                  : 93.750 FPS (512 SPF)
    Bit depth                   : 24 bits
    Compression mode            : Lossless
    Delay relative to video     : 3 ms
    Stream size                 : 2.56 GiB (12%)
    Language                    : English
    Default                     : No
    Forced                      : No
    Original source medium      : Blu-ray

    Text
    ID                          : 4
    ID in the original source m : 4609 (0x1201)
    Format                      : PGS
    Muxing mode                 : zlib
    Codec ID                    : S_HDMV/PGS
    Codec ID/Info               : Picture based subtitle format used on BDs/HD-DVDs
    Duration                    : 1 h 53 min
    Bit rate                    : 34.1 kb/s
    Count of elements           : 2666
    Stream size                 : 27.7 MiB (0%)
    Language                    : Spanish
    Default                     : No
    Forced                      : No
    Original source medium      : Blu-ray

    Menu
    00:00:00.000                : en:Chapter 01
    00:03:18.990                : en:Chapter 02
    00:06:58.668                : en:Chapter 03
    00:09:09.173                : en:Chapter 04
    00:10:27.877                : en:Chapter 05
    00:14:22.861                : en:Chapter 06
    00:18:03.373                : en:Chapter 07
    00:22:42.444                : en:Chapter 08
    00:26:00.517                : en:Chapter 09
    00:29:37.859                : en:Chapter 10
    00:34:20.975                : en:Chapter 11
    00:36:06.205                : en:Chapter 12
    00:40:00.147                : en:Chapter 13
    00:44:42.679                : en:Chapter 14
    00:47:07.741                : en:Chapter 15
    00:49:18.413                : en:Chapter 16
    00:51:45.769                : en:Chapter 17
    00:53:39.132                : en:Chapter 18
    01:00:01.097                : en:Chapter 19
    01:07:46.645                : en:Chapter 20
    01:12:47.195                : en:Chapter 21
    01:18:39.631                : en:Chapter 22
    01:22:30.319                : en:Chapter 23
    01:25:40.301                : en:Chapter 24
    01:26:38.609                : en:Chapter 25
    01:28:32.681                : en:Chapter 26
    01:31:41.829                : en:Chapter 27
    01:34:30.372                : en:Chapter 28
    01:38:17.349                : en:Chapter 29
    01:43:14.938                : en:Chapter 30
    01:45:42.627                : en:Chapter 31
    01:48:03.643                : en:Chapter 32

  • Peso: 20.6 GiB

Sinopsis

Matt King (George Clooney), casado y padre de dos niñas, se ve obligado a replantearse la vida cuando su mujer sufre un terrible accidente que la deja en coma. Intenta torpemente recomponer la relación con sus problemáticas hijas -la precoz Scottie, de 10 años (Amara Miller), y la rebelde Alexandra, de 17 (Shailene Woodley)- al tiempo que se enfrenta a la difícil decisión de vender las propiedades de la familia. Herederos de la realeza hawaiana y de los misioneros, los King poseen en Hawai tierras vírgenes de un valor incalculable.

Ficha técnica

  • Titulo original: The Descendants
  • Fecha de lanzamiento: 09-09-2011 (United States of America)
  • Director: Alexander Payne
  • Género: Comedia, Drama

Video trailer de la película

Enlaces de descarga

Rip de Bluray

Descargar The Descendants (2011) REMUX 1080p Latino – CMHDD


Aportes de DPeliculasHDmega la pass es:dpeliculashdmega.org Aportes de CinemaniaHD la pass es:cinemaniahdd.com
Guardado en : Comedia , Drama

Películas relacionadas

descargar The Descendants (2011) REMUX 1080p Latino – CMHDD 1080p gratis, The Descendants (2011) REMUX 1080p Latino – CMHDD mega 1 link, The Descendants (2011) REMUX 1080p Latino – CMHDD pelicula completa, descargar The Descendants (2011) REMUX 1080p Latino – CMHDD gratis en mega.

The Descendants (2011) REMUX 1080p Latino – CMHDD pelicula full hd, The Descendants (2011) REMUX 1080p Latino – CMHDD mega latino, The Descendants (2011) REMUX 1080p Latino – CMHDD 4k latino, The Descendants (2011) REMUX 1080p Latino – CMHDD pelicula completa, The Descendants (2011) REMUX 1080p Latino – CMHDD descargar gratis, descargar The Descendants (2011) REMUX 1080p Latino – CMHDD pelicula latino, The Descendants (2011) REMUX 1080p Latino – CMHDD 1 link mega, The Descendants (2011) REMUX 1080p Latino – CMHDD 1 link google drive, The Descendants (2011) REMUX 1080p Latino – CMHDD hd 1080p latino.
Comentarios 0