×

¿Problemas para descargar con Mozilla, EDGE? Deshabilita la opción "Abrir vinculos en una pestaña nueva" tal como lo muestra ésta imagen.

The Day the Earth Stood Still (2008) REMUX 1080p Latino – CMHDD

200 vistas

Información de The Day the Earth Stood Still (2008) REMUX 1080p Latino – CMHDD

Datos de la película

  • Calidad: Full 1080p
  • Audio: Español Latino AC3 5.1 BLURAY - Ingles DTS 5.1 BLURAY
  • Subtitulos: Español Latino PGS
  • Resolución: 1920x1080p
  • Formato: MKV
  • Codec: H.264
  • Encoder: Dracarys
  • Mediainfo: Clic para Mostrar Datos Ver
  • Format                      : Matroska
    Format version              : Version 4
    File size                   : 22.5 GiB
    Duration                    : 1 h 43 min
    Overall bit rate mode       : Variable
    Overall bit rate            : 31.1 Mb/s
    Movie name                  : The Day the Earth Stood Still (2008) REMUX 1080p Latino - CMHDD
    Encoded date                : UTC 2023-06-06 23:17:32
    Writing application         : mkvmerge v47.0.0 ('Black Flag') 64-bit
    Writing library             : libebml v1.3.10 + libmatroska v1.5.2
    Cover                       : Yes
    Attachments                 : cover.jpg

    Video
    ID                          : 1
    ID in the original source m : 4113 (0x1011)
    Format                      : AVC
    Format/Info                 : Advanced Video Codec
    Format profile              : High@L4.1
    Format settings             : CABAC / 4 Ref Frames
    Format settings, CABAC      : Yes
    Format settings, Reference  : 4 frames
    Codec ID                    : V_MPEG4/ISO/AVC
    Duration                    : 1 h 43 min
    Bit rate mode               : Variable
    Bit rate                    : 26.5 Mb/s
    Maximum bit rate            : 32.4 Mb/s
    Width                       : 1 920 pixels
    Height                      : 1 080 pixels
    Display aspect ratio        : 16:9
    Frame rate mode             : Constant
    Frame rate                  : 23.976 (24000/1001) FPS
    Color space                 : YUV
    Chroma subsampling          : 4:2:0
    Bit depth                   : 8 bits
    Scan type                   : Progressive
    Bits/(Pixel*Frame)          : 0.534
    Stream size                 : 19.2 GiB (85%)
    Default                     : Yes
    Forced                      : No
    Color range                 : Limited
    Color primaries             : BT.709
    Transfer characteristics    : BT.709
    Matrix coefficients         : BT.709
    Original source medium      : Blu-ray

    Audio #1
    ID                          : 2
    ID in the original source m : 4352 (0x1100)
    Format                      : DTS XLL
    Format/Info                 : Digital Theater Systems
    Commercial name             : DTS-HD Master Audio
    Codec ID                    : A_DTS
    Duration                    : 1 h 43 min
    Bit rate mode               : Variable
    Bit rate                    : 4 032 kb/s
    Channel(s)                  : 6 channels
    Channel layout              : C L R Ls Rs LFE
    Sampling rate               : 48.0 kHz
    Frame rate                  : 93.750 FPS (512 SPF)
    Bit depth                   : 24 bits
    Compression mode            : Lossless
    Stream size                 : 2.92 GiB (13%)
    Language                    : English
    Default                     : No
    Forced                      : No
    Original source medium      : Blu-ray

    Audio #2
    ID                          : 3
    ID in the original source m : 4354 (0x1102)
    Format                      : AC-3
    Format/Info                 : Audio Coding 3
    Commercial name             : Dolby Digital
    Codec ID                    : A_AC3
    Duration                    : 1 h 43 min
    Bit rate mode               : Constant
    Bit rate                    : 448 kb/s
    Channel(s)                  : 6 channels
    Channel layout              : L R C LFE Ls Rs
    Sampling rate               : 48.0 kHz
    Frame rate                  : 31.250 FPS (1536 SPF)
    Compression mode            : Lossy
    Stream size                 : 332 MiB (1%)
    Language                    : Spanish
    Service kind                : Complete Main
    Default                     : Yes
    Forced                      : No
    Original source medium      : Blu-ray

    Text #1
    ID                          : 4
    ID in the original source m : 4609 (0x1201)
    Format                      : PGS
    Muxing mode                 : zlib
    Codec ID                    : S_HDMV/PGS
    Codec ID/Info               : Picture based subtitle format used on BDs/HD-DVDs
    Duration                    : 1 h 36 min
    Bit rate                    : 56.2 kb/s
    Frame rate                  : 0.361 FPS
    Count of elements           : 2093
    Stream size                 : 38.8 MiB (0%)
    Language                    : Spanish
    Default                     : No
    Forced                      : No
    Original source medium      : Blu-ray

    Text #2
    ID                          : 5
    ID in the original source m : 4616 (0x1208)
    Format                      : PGS
    Muxing mode                 : zlib
    Codec ID                    : S_HDMV/PGS
    Codec ID/Info               : Picture based subtitle format used on BDs/HD-DVDs
    Duration                    : 56 min 26 s
    Bit rate                    : 1 594 b/s
    Frame rate                  : 0.010 FPS
    Count of elements           : 35
    Stream size                 : 659 KiB (0%)
    Language                    : Spanish
    Default                     : No
    Forced                      : No
    Original source medium      : Blu-ray

    Menu
    00:00:00.000                : en:Capítulo 01
    00:05:25.992                : en:Capítulo 02
    00:11:53.421                : en:Capítulo 03
    00:15:46.946                : en:Capítulo 04
    00:21:24.908                : en:Capítulo 05
    00:24:10.031                : en:Capítulo 06
    00:28:40.301                : en:Capítulo 07
    00:31:35.560                : en:Capítulo 08
    00:34:20.641                : en:Capítulo 09
    00:37:50.643                : en:Capítulo 10
    00:41:40.748                : en:Capítulo 11
    00:44:27.373                : en:Capítulo 12
    00:47:33.308                : en:Capítulo 13
    00:49:05.692                : en:Capítulo 14
    00:51:20.368                : en:Capítulo 15
    00:54:38.483                : en:Capítulo 16
    00:59:25.520                : en:Capítulo 17
    01:01:04.744                : en:Capítulo 18
    01:06:44.000                : en:Capítulo 19
    01:10:50.329                : en:Capítulo 20
    01:13:06.131                : en:Capítulo 21
    01:17:41.365                : en:Capítulo 22
    01:21:53.742                : en:Capítulo 23
    01:24:12.422                : en:Capítulo 24
    01:27:24.530                : en:Capítulo 25
    01:29:39.082                : en:Capítulo 26
    01:34:45.680                : en:Capítulo 27
    01:38:32.907                : en:Capítulo 28

  • Peso: 22.5 GiB

Sinopsis

La Dra. Helen Benson es sacada repentinamente de su casa por la Agencia de Seguridad Nacional, y llevada junto a otros científicos. para intentar explicar las causas de un misterioso objeto del espacio que va a chocar de forma inmintente contra la isla de Manhattan. Pero la colisión no se produce, pues el OVNI, que resulta ser una nave espacial de origen desconocido, aterriza en medio de Central Park. Las extraordinarias circustancias que siguen a tan prodigioso acontecimiento, llevarán a la Dra. Helen a conocer a Klaatu, un extraterrestre humanoide que dice llegar a la Tierra con fines pacíficos, para advertir a la población.

Ficha técnica

Video trailer de la película

Enlaces de descarga

Rip de Bluray

Descargar The Day the Earth Stood Still (2008) REMUX 1080p Latino – CMHDD


Aportes de DPeliculasHDmega la pass es:dpeliculashdmega.org Aportes de CinemaniaHD la pass es:cinemaniahdd.com Aportes recientes:cinemaniahdd.net
Guardado en : Ciencia ficción , Drama , Suspenso

Películas relacionadas

descargar The Day the Earth Stood Still (2008) REMUX 1080p Latino – CMHDD Full 1080p 1080p gratis, The Day the Earth Stood Still (2008) REMUX 1080p Latino – CMHDD Full 1080p mega 1 link, The Day the Earth Stood Still (2008) REMUX 1080p Latino – CMHDD Full 1080p pelicula completa, descargar The Day the Earth Stood Still (2008) REMUX 1080p Latino – CMHDD Full 1080p gratis en mega.

The Day the Earth Stood Still (2008) REMUX 1080p Latino – CMHDD pelicula full hd, The Day the Earth Stood Still (2008) REMUX 1080p Latino – CMHDD mega latino, The Day the Earth Stood Still (2008) REMUX 1080p Latino – CMHDD 4k latino, The Day the Earth Stood Still (2008) REMUX 1080p Latino – CMHDD pelicula completa, The Day the Earth Stood Still (2008) REMUX 1080p Latino – CMHDD descargar gratis, descargar The Day the Earth Stood Still (2008) REMUX 1080p Latino – CMHDD pelicula latino, The Day the Earth Stood Still (2008) REMUX 1080p Latino – CMHDD 1 link mega, The Day the Earth Stood Still (2008) REMUX 1080p Latino – CMHDD 1 link google drive, The Day the Earth Stood Still (2008) REMUX 1080p Latino – CMHDD hd 1080p latino.
Comentarios 0