×

¿Problemas para descargar con Mozilla, EDGE? Deshabilita la opción "Abrir vinculos en una pestaña nueva" tal como lo muestra ésta imagen.

The Day After Tomorrow (2004) WEB-DL 4K HDR Latino – CMHDD

114 vistas

Información de The Day After Tomorrow (2004) WEB-DL 4K HDR Latino – CMHDD

Datos de la película

  • Calidad: WEBDL
  • Audio: Español Latino AC3 5.1 WEB-DL - Ingles AC3 5.1 WEB-DL
  • Subtitulos: Español Latino SRT- FORZADOS SRT
  • Resolución: 3840x2160p
  • Formato: MKV
  • Codec: H.264
  • Encoder: Dracarys
  • Mediainfo: Clic para Mostrar Datos Ver
  • Format                      : Matroska
    Format version              : Version 4
    File size                   : 16.0 GiB
    Duration                    : 2 h 3 min
    Overall bit rate            : 18.5 Mb/s
    Movie name                  : The Day After Tomorrow (2004) WEB-DL 4K HDR Latino - CMHDD
    Encoded date                : UTC 2023-12-15 01:11:49
    Writing application         : mkvmerge v47.0.0 ('Black Flag') 64-bit
    Writing library             : libebml v1.3.10 + libmatroska v1.5.2

    Video
    ID                          : 1
    Format                      : HEVC
    Format/Info                 : High Efficiency Video Coding
    Format profile              : Main 10@L5@High
    HDR format                  : SMPTE ST 2086, HDR10 compatible
    Codec ID                    : V_MPEGH/ISO/HEVC
    Duration                    : 2 h 3 min
    Bit rate                    : 16.5 Mb/s
    Width                       : 3 840 pixels
    Height                      : 2 160 pixels
    Display aspect ratio        : 16:9
    Frame rate mode             : Constant
    Frame rate                  : 23.976 (24000/1001) FPS
    Color space                 : YUV
    Chroma subsampling          : 4:2:0
    Bit depth                   : 10 bits
    Bits/(Pixel*Frame)          : 0.083
    Stream size                 : 14.3 GiB (89%)
    Default                     : Yes
    Forced                      : No
    Color range                 : Limited
    Color primaries             : BT.2020
    Transfer characteristics    : PQ
    Matrix coefficients         : BT.2020 non-constant
    Mastering display color pri : Display P3
    Mastering display luminance : min: 0.0050 cd/m2, max: 1000 cd/m2

    Audio #1
    ID                          : 2
    Format                      : AC-3
    Format/Info                 : Audio Coding 3
    Commercial name             : Dolby Digital
    Codec ID                    : A_AC3
    Duration                    : 2 h 3 min
    Bit rate mode               : Constant
    Bit rate                    : 448 kb/s
    Channel(s)                  : 6 channels
    Channel layout              : L R C LFE Ls Rs
    Sampling rate               : 48.0 kHz
    Frame rate                  : 31.250 FPS (1536 SPF)
    Compression mode            : Lossy
    Delay relative to video     : 5 ms
    Stream size                 : 396 MiB (2%)
    Language                    : Spanish
    Service kind                : Complete Main
    Default                     : Yes
    Forced                      : Yes

    Audio #2
    ID                          : 3
    Format                      : E-AC-3
    Format/Info                 : Enhanced AC-3
    Commercial name             : Dolby Digital Plus
    Codec ID                    : A_EAC3
    Duration                    : 2 h 3 min
    Bit rate mode               : Constant
    Bit rate                    : 1 536 kb/s
    Channel(s)                  : 6 channels
    Channel layout              : L R C LFE Ls Rs
    Sampling rate               : 48.0 kHz
    Frame rate                  : 62.500 FPS (768 SPF)
    Compression mode            : Lossy
    Stream size                 : 1.33 GiB (8%)
    Language                    : English
    Service kind                : Complete Main
    Default                     : No
    Forced                      : No

    Text #1
    ID                          : 4
    Format                      : UTF-8
    Codec ID                    : S_TEXT/UTF8
    Codec ID/Info               : UTF-8 Plain Text
    Duration                    : 1 h 39 min
    Bit rate                    : 0 b/s
    Frame rate                  : 0.001 FPS
    Count of elements           : 5
    Stream size                 : 135 Bytes (0%)
    Title                       : Forzados
    Language                    : Spanish
    Default                     : Yes
    Forced                      : Yes

    Text #2
    ID                          : 5
    Format                      : UTF-8
    Codec ID                    : S_TEXT/UTF8
    Codec ID/Info               : UTF-8 Plain Text
    Duration                    : 2 h 0 min
    Bit rate                    : 51 b/s
    Frame rate                  : 0.163 FPS
    Count of elements           : 1179
    Stream size                 : 45.3 KiB (0%)
    Language                    : Spanish
    Default                     : No
    Forced                      : No

     

  • Peso: 16.0 GiB

Sinopsis

Las investigaciones del climatólogo Jack Hall indican que el calentamiento global podría desencadenar un repentino y catastrófico cambio climático de la Tierra. Hall advierte a los dirigentes políticos de la necesidad de adoptar inmediatamente medidas para evitarlo, pero sus advertencias llegan demasiado tarde: una serie de anómalos fenómenos climáticos empiezan a producirse en distintas partes del globo. El calentamiento global ha puesto el planeta al borde de una nueva era glacial. Mientras Jack advierte a la Casa Blanca del inminente cambio climático, su hijo Sam y sus amigos se encuentran atrapados en Nueva York, a donde han ido para participar en un concurso académico entre institutos.

Ficha técnica

Video trailer de la película

Enlaces de descarga

Rip de Bluray

Descargar The Day After Tomorrow (2004) WEB-DL 4K HDR Latino – CMHDD




Aportes de DPeliculasHDmega la pass es:dpeliculashdmega.org Aportes de CinemaniaHD la pass es:cinemaniahdd.com Aportes recientes:cinemaniahdd.net

Películas relacionadas

descargar The Day After Tomorrow (2004) WEB-DL 4K HDR Latino – CMHDD WEBDL 1080p gratis, The Day After Tomorrow (2004) WEB-DL 4K HDR Latino – CMHDD WEBDL mega 1 link, The Day After Tomorrow (2004) WEB-DL 4K HDR Latino – CMHDD WEBDL pelicula completa, descargar The Day After Tomorrow (2004) WEB-DL 4K HDR Latino – CMHDD WEBDL gratis en mega.

The Day After Tomorrow (2004) WEB-DL 4K HDR Latino – CMHDD pelicula full hd, The Day After Tomorrow (2004) WEB-DL 4K HDR Latino – CMHDD mega latino, The Day After Tomorrow (2004) WEB-DL 4K HDR Latino – CMHDD 4k latino, The Day After Tomorrow (2004) WEB-DL 4K HDR Latino – CMHDD pelicula completa, The Day After Tomorrow (2004) WEB-DL 4K HDR Latino – CMHDD descargar gratis, descargar The Day After Tomorrow (2004) WEB-DL 4K HDR Latino – CMHDD pelicula latino, The Day After Tomorrow (2004) WEB-DL 4K HDR Latino – CMHDD 1 link mega, The Day After Tomorrow (2004) WEB-DL 4K HDR Latino – CMHDD 1 link google drive, The Day After Tomorrow (2004) WEB-DL 4K HDR Latino – CMHDD hd 1080p latino.
Comentarios 0