The Day After Tomorrow (2004) [Open Matte] WEB-DL 1080p Latino – CMHDD

37 vistas
1 estrella2 estrellas3 estrellas4 estrellas5 estrellas (Ninguna valoración todavía)
Cargando...

Información de The Day After Tomorrow (2004) [Open Matte] WEB-DL 1080p Latino – CMHDD

Datos de la película

  • Calidad: WEBDL
  • Audio: Español Latino AC3 5.1 BLURAY - Ingles DTS 5.1 BLURAY
  • Subtitulos: Español Latino SRT
  • Resolución: 1920x1080p
  • Formato: MKV
  • Codec: H.264
  • Encoder: Dracarys
  • Mediainfo: Clic para Mostrar Datos Ver
  • Format                      : Matroska
    Format version              : Version 4
    File size                   : 5.27 GiB
    Duration                    : 2 h 3 min
    Overall bit rate            : 6 100 kb/s
    Movie name                  : The Day After Tomorrow (2004) [Open Matte] WEB-DL 1080p Latino - CMHDD
    Encoded date                : UTC 2021-10-19 23:47:23
    Writing application         : mkvmerge v17.0.0 ('Be Ur Friend') 64-bit
    Writing library             : libebml v1.3.5 + libmatroska v1.4.8

    Video
    ID                          : 1
    Format                      : AVC
    Format/Info                 : Advanced Video Codec
    Format profile              : High@L4.1
    Format settings             : CABAC / 4 Ref Frames
    Format settings, CABAC      : Yes
    Format settings, Reference  : 4 frames
    Codec ID                    : V_MPEG4/ISO/AVC
    Duration                    : 2 h 3 min
    Bit rate                    : 5 120 kb/s
    Width                       : 1 920 pixels
    Height                      : 1 080 pixels
    Display aspect ratio        : 16:9
    Frame rate mode             : Constant
    Frame rate                  : 23.976 (24000/1001) FPS
    Color space                 : YUV
    Chroma subsampling          : 4:2:0
    Bit depth                   : 8 bits
    Scan type                   : Progressive
    Bits/(Pixel*Frame)          : 0.103
    Stream size                 : 4.23 GiB (80%)
    Writing library             : x264 core 142
    Encoding settings           : cabac=1 / ref=3 / deblock=1:0:0 / analyse=0x3:0x113 / me=hex / subme=7 / psy=1 / psy_rd=1.00:0.00 / mixed_ref=1 / me_range=16 / chroma_me=1 / trellis=1 / 8x8dct=1 / cqm=0 / deadzone=21,11 / fast_pskip=1 / chroma_qp_offset=-2 / threads=8 / lookahead_threads=1 / sliced_threads=0 / nr=0 / decimate=1 / interlaced=0 / bluray_compat=0 / constrained_intra=0 / bframes=6 / b_pyramid=2 / b_adapt=1 / b_bias=0 / direct=1 / weightb=1 / open_gop=0 / weightp=2 / keyint=200 / keyint_min=20 / scenecut=0 / intra_refresh=0 / rc_lookahead=40 / rc=2pass / mbtree=1 / bitrate=5120 / ratetol=1.0 / qcomp=0.60 / qpmin=0 / qpmax=69 / qpstep=4 / cplxblur=20.0 / qblur=0.5 / vbv_maxrate=7680 / vbv_bufsize=20480 / nal_hrd=none / filler=0 / ip_ratio=1.40 / aq=1:1.00
    Language                    : English
    Default                     : Yes
    Forced                      : Yes

    Audio #1
    ID                          : 2
    Format                      : AC-3
    Format/Info                 : Audio Coding 3
    Commercial name             : Dolby Digital
    Codec ID                    : A_AC3
    Duration                    : 2 h 3 min
    Bit rate mode               : Constant
    Bit rate                    : 448 kb/s
    Channel(s)                  : 6 channels
    Channel layout              : L R C LFE Ls Rs
    Sampling rate               : 48.0 kHz
    Frame rate                  : 31.250 FPS (1536 SPF)
    Compression mode            : Lossy
    Delay relative to video     : -2 s 0 ms
    Stream size                 : 396 MiB (7%)
    Language                    : Spanish
    Service kind                : Complete Main
    Default                     : Yes
    Forced                      : No

    Audio #2
    ID                          : 3
    Format                      : DTS
    Format/Info                 : Digital Theater Systems
    Codec ID                    : A_DTS
    Duration                    : 2 h 3 min
    Bit rate mode               : Constant
    Bit rate                    : 755 kb/s
    Channel(s)                  : 6 channels
    Channel layout              : C L R Ls Rs LFE
    Sampling rate               : 48.0 kHz
    Frame rate                  : 93.750 FPS (512 SPF)
    Bit depth                   : 24 bits
    Compression mode            : Lossy
    Delay relative to video     : -2 s 0 ms
    Stream size                 : 667 MiB (12%)
    Language                    : English
    Default                     : No
    Forced                      : No

    Text
    ID                          : 4
    Format                      : UTF-8
    Codec ID                    : S_TEXT/UTF8
    Codec ID/Info               : UTF-8 Plain Text
    Duration                    : 1 h 52 min
    Bit rate                    : 54 b/s
    Count of elements           : 1170
    Stream size                 : 45.2 KiB (0%)
    Language                    : Spanish
    Default                     : No
    Forced                      : No

    Menu
    00:00:00.000                : en:Chapter 1
    00:03:07.562                : en:Chapter 2
    00:06:15.792                : en:Chapter 3
    00:09:17.181                : en:Chapter 4
    00:12:04.432                : en:Chapter 5
    00:15:42.733                : en:Chapter 6
    00:18:37.699                : en:Chapter 7
    00:20:45.661                : en:Chapter 8
    00:22:41.401                : en:Chapter 9
    00:24:13.326                : en:Chapter 10
    00:31:22.922                : en:Chapter 11
    00:38:26.303                : en:Chapter 12
    00:42:14.948                : en:Chapter 13
    00:48:08.010                : en:Chapter 14
    00:51:15.655                : en:Chapter 15
    00:54:12.415                : en:Chapter 16
    01:03:00.151                : en:Chapter 17
    01:06:22.353                : en:Chapter 18
    01:08:09.835                : en:Chapter 19
    01:11:26.615                : en:Chapter 20
    01:13:40.248                : en:Chapter 21
    01:17:46.995                : en:Chapter 22
    01:20:52.430                : en:Chapter 23
    01:24:08.001                : en:Chapter 24
    01:27:57.647                : en:Chapter 25
    01:29:35.870                : en:Chapter 26
    01:32:18.616                : en:Chapter 27
    01:38:42.958                : en:Chapter 28
    01:41:34.463                : en:Chapter 29
    01:46:57.911                : en:Chapter 30
    01:50:41.676                : en:Chapter 31
    01:55:38.598                : en:Chapter 32
    02:03:39.411                : en:Chapter 33

  • Peso: 5.27 GiB

Sinopsis

Las investigaciones del climatólogo Jack Hall indican que el calentamiento global podría desencadenar un repentino y catastrófico cambio climático de la Tierra. Hall advierte a los dirigentes políticos de la necesidad de adoptar inmediatamente medidas para evitarlo, pero sus advertencias llegan demasiado tarde: una serie de anómalos fenómenos climáticos empiezan a producirse en distintas partes del globo. El calentamiento global ha puesto el planeta al borde de una nueva era glacial. Mientras Jack advierte a la Casa Blanca del inminente cambio climático, su hijo Sam y sus amigos se encuentran atrapados en Nueva York, a donde han ido para participar en un concurso académico entre institutos.

Ficha técnica

Video trailer de la película

Enlaces de descarga

Rip de Bluray

Descargar The Day After Tomorrow (2004) [Open Matte] WEB-DL 1080p Latino – CMHDD




Aportes de DPeliculasHDmega la pass es:dpeliculashdmega.org Aportes de CinemaniaHD la pass es:cinemaniahdd.com

Películas relacionadas

  • Afuera Del Tiempo (2019) AMZN WEB-DL 1080p Latino

    Afuera Del Tiempo (2019) AMZN WEB-DL 1080p Latino

    2019
    Afuera Del Tiempo (2019) AMZN WEB-DL 1080p Latino

    0.0 1h 21m 2019

    Ricardo siempre le ha terminado a todas sus novias, pero una se le adelanta justo, cuando él le propone...

    Director: Marco Vélez Esquivia

    Género: Ciencia ficción

    Actores: Walter Luengas

  • Hawkeye (2021) Temporada 1 Web-DL 4K UHD HDR Latino

    Hawkeye (2021) Temporada 1 Web-DL 4K UHD HDR Latino

    2021
    Hawkeye (2021) Temporada 1 Web-DL 4K UHD HDR Latino

    1.0 0h 0m 2021

    Descargar Hawkeye (2021) Temporada 1 Web-DL 4K UHD HDR Latino. "Hawkeye", de Marvel Studios, es una nueva...

    Director: Jonathan Igla

    Género: 4K HDR

    Actores: Zahn McClarnon

  • Hawkeye (2021) Temporada 1 WEB-DL 1080p Latino

    Hawkeye (2021) Temporada 1 WEB-DL 1080p Latino

    2021
    Hawkeye (2021) Temporada 1 WEB-DL 1080p Latino

    5.0 0h 0m 2021

    Descargar Hawkeye (2021) Temporada 1 WEB-DL 1080p Latino. "Hawkeye", de Marvel Studios, es una nueva...

    Director: Jonathan Igla

    Género: Acción

    Actores: Zahn McClarnon

The Day After Tomorrow (2004) [Open Matte] WEB-DL 1080p Latino – CMHDD pelicula full hd, The Day After Tomorrow (2004) [Open Matte] WEB-DL 1080p Latino – CMHDD mega latino, The Day After Tomorrow (2004) [Open Matte] WEB-DL 1080p Latino – CMHDD 4k latino, The Day After Tomorrow (2004) [Open Matte] WEB-DL 1080p Latino – CMHDD pelicula completa, The Day After Tomorrow (2004) [Open Matte] WEB-DL 1080p Latino – CMHDD descargar gratis, descargar The Day After Tomorrow (2004) [Open Matte] WEB-DL 1080p Latino – CMHDD pelicula latino, The Day After Tomorrow (2004) [Open Matte] WEB-DL 1080p Latino – CMHDD 1 link mega, The Day After Tomorrow (2004) [Open Matte] WEB-DL 1080p Latino – CMHDD 1 link google drive, The Day After Tomorrow (2004) [Open Matte] WEB-DL 1080p Latino – CMHDD hd 1080p latino.