×

¿Problemas para descargar con Mozilla, EDGE? Deshabilita la opción "Abrir vinculos en una pestaña nueva" tal como lo muestra ésta imagen.

The Day After Tomorrow (2004) Full HD 1080p Latino – CMHDD

210 vistas

Información de The Day After Tomorrow (2004) Full HD 1080p Latino – CMHDD

Datos de la película

  • Calidad: Full 1080p
  • Audio: Español Latino AC3 5.1 BLURAY - Ingles DTS 5.1 BLURAY
  • Subtitulos: Español Latino PGS
  • Resolución: 1920X1080P
  • Formato: MKV
  • Codec: H.264
  • Encoder: Dracarys
  • Mediainfo: Clic para Mostrar Datos Ver
  • Format                      : Matroska
    Format version              : Version 4
    File size                   : 9.11 GiB
    Duration                    : 2 h 3 min
    Overall bit rate mode       : Variable
    Overall bit rate            : 10.5 Mb/s
    Movie name                  : The Day After Tomorrow (2004) Full HD 1080p Latino - CMHDD
    Encoded date                : UTC 2021-10-24 19:35:00
    Writing application         : mkvmerge v17.0.0 ('Be Ur Friend') 64-bit
    Writing library             : libebml v1.3.5 + libmatroska v1.4.8

    Video
    ID                          : 1
    Format                      : AVC
    Format/Info                 : Advanced Video Codec
    Format profile              : High@L4.1
    Format settings             : CABAC / 4 Ref Frames
    Format settings, CABAC      : Yes
    Format settings, Reference  : 4 frames
    Codec ID                    : V_MPEG4/ISO/AVC
    Duration                    : 2 h 3 min
    Bit rate                    : 5 906 kb/s
    Width                       : 1 920 pixels
    Height                      : 1 080 pixels
    Display aspect ratio        : 16:9
    Frame rate mode             : Constant
    Frame rate                  : 23.976 (24000/1001) FPS
    Color space                 : YUV
    Chroma subsampling          : 4:2:0
    Bit depth                   : 8 bits
    Scan type                   : Progressive
    Bits/(Pixel*Frame)          : 0.119
    Stream size                 : 5.10 GiB (56%)
    Writing library             : x264 core 163 r3059 b684ebe0
    Encoding settings           : cabac=1 / ref=4 / deblock=1:0:0 / analyse=0x3:0x133 / me=tesa / subme=11 / psy=1 / psy_rd=1.00:0.00 / mixed_ref=1 / me_range=24 / chroma_me=1 / trellis=2 / 8x8dct=1 / cqm=0 / deadzone=21,11 / fast_pskip=0 / chroma_qp_offset=-2 / threads=24 / lookahead_threads=6 / sliced_threads=0 / nr=0 / decimate=1 / interlaced=0 / bluray_compat=0 / constrained_intra=0 / bframes=16 / b_pyramid=2 / b_adapt=2 / b_bias=0 / direct=3 / weightb=1 / open_gop=0 / weightp=2 / keyint=240 / keyint_min=24 / scenecut=40 / intra_refresh=0 / rc_lookahead=60 / rc=crf / mbtree=1 / crf=20.0 / qcomp=0.60 / qpmin=0 / qpmax=69 / qpstep=4 / vbv_maxrate=62500 / vbv_bufsize=78125 / crf_max=0.0 / nal_hrd=none / filler=0 / ip_ratio=1.40 / aq=1:1.00
    Default                     : Yes
    Forced                      : No
    Color range                 : Limited
    Color primaries             : BT.709
    Transfer characteristics    : BT.709
    Matrix coefficients         : BT.709

    Audio #1
    ID                          : 2
    Format                      : AC-3
    Format/Info                 : Audio Coding 3
    Commercial name             : Dolby Digital
    Codec ID                    : A_AC3
    Duration                    : 2 h 3 min
    Bit rate mode               : Constant
    Bit rate                    : 448 kb/s
    Channel(s)                  : 6 channels
    Channel layout              : L R C LFE Ls Rs
    Sampling rate               : 48.0 kHz
    Frame rate                  : 31.250 FPS (1536 SPF)
    Compression mode            : Lossy
    Delay relative to video     : 9 ms
    Stream size                 : 396 MiB (4%)
    Language                    : Spanish
    Service kind                : Complete Main
    Default                     : Yes
    Forced                      : No

    Audio #2
    ID                          : 3
    Format                      : DTS XLL
    Format/Info                 : Digital Theater Systems
    Commercial name             : DTS-HD Master Audio
    Codec ID                    : A_DTS
    Duration                    : 2 h 3 min
    Bit rate mode               : Variable
    Bit rate                    : 4 169 kb/s
    Channel(s)                  : 6 channels
    Channel layout              : C L R Ls Rs LFE
    Sampling rate               : 48.0 kHz
    Frame rate                  : 93.750 FPS (512 SPF)
    Bit depth                   : 24 bits
    Compression mode            : Lossless
    Delay relative to video     : 2 ms
    Stream size                 : 3.60 GiB (40%)
    Language                    : English
    Default                     : No
    Forced                      : No

    Text #1
    ID                          : 4
    Format                      : PGS
    Muxing mode                 : zlib
    Codec ID                    : S_HDMV/PGS
    Codec ID/Info               : Picture based subtitle format used on BDs/HD-DVDs
    Duration                    : 1 h 52 min
    Bit rate                    : 44.1 kb/s
    Count of elements           : 2168
    Stream size                 : 35.3 MiB (0%)
    Language                    : Spanish
    Default                     : No
    Forced                      : No

    Text #2
    ID                          : 5
    Format                      : PGS
    Muxing mode                 : zlib
    Codec ID                    : S_HDMV/PGS
    Codec ID/Info               : Picture based subtitle format used on BDs/HD-DVDs
    Duration                    : 1 h 47 min
    Bit rate                    : 678 b/s
    Count of elements           : 28
    Stream size                 : 536 KiB (0%)
    Language                    : Spanish
    Default                     : No
    Forced                      : No

    Menu
    00:00:00.000                : :Chapter 1
    00:03:07.562                : :Chapter 2
    00:06:15.792                : :Chapter 3
    00:09:17.182                : :Chapter 4
    00:12:04.432                : :Chapter 5
    00:15:42.733                : :Chapter 6
    00:18:37.700                : :Chapter 7
    00:20:45.661                : :Chapter 8
    00:22:41.402                : :Chapter 9
    00:24:13.327                : :Chapter 10
    00:31:22.923                : :Chapter 11
    00:38:26.304                : :Chapter 12
    00:42:14.949                : :Chapter 13
    00:48:08.010                : :Chapter 14
    00:51:15.656                : :Chapter 15
    00:54:12.416                : :Chapter 16
    01:03:00.151                : :Chapter 17
    01:06:22.353                : :Chapter 18
    01:08:09.836                : :Chapter 19
    01:11:26.616                : :Chapter 20
    01:13:40.249                : :Chapter 21
    01:17:46.996                : :Chapter 22
    01:20:52.431                : :Chapter 23
    01:24:08.001                : :Chapter 24
    01:27:57.647                : :Chapter 25
    01:29:35.871                : :Chapter 26
    01:32:18.616                : :Chapter 27
    01:38:42.959                : :Chapter 28
    01:41:34.463                : :Chapter 29
    01:46:57.912                : :Chapter 30
    01:50:41.677                : :Chapter 31
    01:55:38.598                : :Chapter 32

  • Peso: 9.11 GiB

Sinopsis

Las investigaciones del climatólogo Jack Hall indican que el calentamiento global podría desencadenar un repentino y catastrófico cambio climático de la Tierra. Hall advierte a los dirigentes políticos de la necesidad de adoptar inmediatamente medidas para evitarlo, pero sus advertencias llegan demasiado tarde: una serie de anómalos fenómenos climáticos empiezan a producirse en distintas partes del globo. El calentamiento global ha puesto el planeta al borde de una nueva era glacial. Mientras Jack advierte a la Casa Blanca del inminente cambio climático, su hijo Sam y sus amigos se encuentran atrapados en Nueva York, a donde han ido para participar en un concurso académico entre institutos.

Ficha técnica

Video trailer de la película

Enlaces de descarga

Rip de Bluray

Descargar The Day After Tomorrow (2004) Full HD 1080p Latino – CMHDD




Aportes de DPeliculasHDmega la pass es:dpeliculashdmega.org Aportes de CinemaniaHD la pass es:cinemaniahdd.com

Películas relacionadas

The Day After Tomorrow (2004) Full HD 1080p Latino – CMHDD pelicula full hd, The Day After Tomorrow (2004) Full HD 1080p Latino – CMHDD mega latino, The Day After Tomorrow (2004) Full HD 1080p Latino – CMHDD 4k latino, The Day After Tomorrow (2004) Full HD 1080p Latino – CMHDD pelicula completa, The Day After Tomorrow (2004) Full HD 1080p Latino – CMHDD descargar gratis, descargar The Day After Tomorrow (2004) Full HD 1080p Latino – CMHDD pelicula latino, The Day After Tomorrow (2004) Full HD 1080p Latino – CMHDD 1 link mega, The Day After Tomorrow (2004) Full HD 1080p Latino – CMHDD 1 link google drive, The Day After Tomorrow (2004) Full HD 1080p Latino – CMHDD hd 1080p latino.
Comentarios 2
  • The Chingon - 24 octubre, 2021

    2 canales??? la tengo en latino 5.1.AC-3

    • Dracarys - 24 octubre, 2021

      Olvide cambiar eso, pero Sí es Latino 5.1