×

¿Problemas para descargar con Mozilla, EDGE? Deshabilita la opción "Abrir vinculos en una pestaña nueva" tal como lo muestra ésta imagen.

La Chica Danesa (2015) 1080p Latino-CMHDD

134 vistas

Información de La Chica Danesa (2015) 1080p Latino-CMHDD

Datos de la película

  • Calidad: 1080p
  • Audio: Español Latino AC3 5.1 BLURAY - Ingles AC3 5.1 BLURAY
  • Subtitulos: Español Latino SRT - Ingles SRT
  • Resolución: 1920x1040p
  • Formato: MKV
  • Codec: H.264
  • Encoder: CinefiloCool
  • Mediainfo: Clic para Mostrar Datos Ver
  • The.Danish.Girl.2015.Bluray.1080p.x264.Latino-CC@CMHDD.mkv
    Format                      : Matroska
    Format version              : Version 4
    File size                   : 4.53 GiB
    Duration                    : 1 h 59 min
    Overall bit rate            : 5 417 kb/s
    Movie name                  : The Danish Girl (2015) CinemaniaHDD.Net
    Encoded date                : UTC 2024-02-15 06:32:57
    Writing application         : mkvmerge v56.1.0 ('My Friend') 64-bit
    Writing library             : libebml v1.4.2 + libmatroska v1.6.4
    Attachments                 : CINEMANIAHD.png

    Video
    ID                          : 1
    Format                      : AVC
    Format/Info                 : Advanced Video Codec
    Format profile              : High@L4.1
    Format settings             : CABAC / 4 Ref Frames
    Format settings, CABAC      : Yes
    Format settings, Reference  : 4 frames
    Codec ID                    : V_MPEG4/ISO/AVC
    Duration                    : 1 h 59 min
    Bit rate                    : 4 135 kb/s
    Width                       : 1 920 pixels
    Height                      : 1 040 pixels
    Display aspect ratio        : 1.85:1
    Frame rate mode             : Constant
    Frame rate                  : 23.976 (24000/1001) FPS
    Color space                 : YUV
    Chroma subsampling          : 4:2:0
    Bit depth                   : 8 bits
    Scan type                   : Progressive
    Bits/(Pixel*Frame)          : 0.086
    Stream size                 : 3.46 GiB (76%)
    Title                       : HD1080p [CinemaniaHDD]
    Writing library             : x264 core 148 r2638 7599210
    Encoding settings           : cabac=1 / ref=4 / deblock=1:-1:-1 / analyse=0x3:0x133 / me=umh / subme=11 / psy=1 / psy_rd=1.00:0.15 / mixed_ref=1 / me_range=32 / chroma_me=1 / trellis=2 / 8x8dct=1 / cqm=0 / deadzone=21,11 / fast_pskip=0 / chroma_qp_offset=-3 / threads=12 / lookahead_threads=1 / sliced_threads=0 / nr=0 / decimate=1 / interlaced=0 / bluray_compat=0 / constrained_intra=0 / bframes=4 / b_pyramid=2 / b_adapt=2 / b_bias=0 / direct=3 / weightb=1 / open_gop=0 / weightp=2 / keyint=240 / keyint_min=23 / scenecut=40 / intra_refresh=0 / rc_lookahead=60 / rc=2pass / mbtree=1 / bitrate=4135 / ratetol=1.0 / qcomp=0.60 / qpmin=0 / qpmax=69 / qpstep=4 / cplxblur=20.0 / qblur=0.5 / ip_ratio=1.40 / aq=1:1.00
    Language                    : English
    Default                     : Yes
    Forced                      : Yes

    Audio #1
    ID                          : 2
    Format                      : AC-3
    Format/Info                 : Audio Coding 3
    Commercial name             : Dolby Digital
    Codec ID                    : A_AC3
    Duration                    : 1 h 59 min
    Bit rate mode               : Constant
    Bit rate                    : 640 kb/s
    Channel(s)                  : 6 channels
    Channel layout              : L R C LFE Ls Rs
    Sampling rate               : 48.0 kHz
    Frame rate                  : 31.250 FPS (1536 SPF)
    Compression mode            : Lossy
    Delay relative to video     : -125 ms
    Stream size                 : 547 MiB (12%)
    Title                       : Español Latino [CinemaniaHDD]
    Language                    : Spanish
    Service kind                : Complete Main
    Default                     : Yes
    Forced                      : Yes

    Audio #2
    ID                          : 3
    Format                      : AC-3
    Format/Info                 : Audio Coding 3
    Commercial name             : Dolby Digital
    Codec ID                    : A_AC3
    Duration                    : 1 h 59 min
    Bit rate mode               : Constant
    Bit rate                    : 640 kb/s
    Channel(s)                  : 6 channels
    Channel layout              : L R C LFE Ls Rs
    Sampling rate               : 48.0 kHz
    Frame rate                  : 31.250 FPS (1536 SPF)
    Compression mode            : Lossy
    Delay relative to video     : -125 ms
    Stream size                 : 548 MiB (12%)
    Title                       : Ingles [CinemaniaHDD]
    Language                    : English
    Service kind                : Complete Main
    Default                     : No
    Forced                      : No

    Text #1
    ID                          : 4
    Format                      : UTF-8
    Codec ID                    : S_TEXT/UTF8
    Codec ID/Info               : UTF-8 Plain Text
    Duration                    : 1 h 49 min
    Bit rate                    : 0 b/s
    Count of elements           : 11
    Stream size                 : 466 Bytes (0%)
    Title                       : Forzados-SRT [CinemaniaHDD]
    Language                    : Spanish
    Default                     : Yes
    Forced                      : Yes

    Text #2
    ID                          : 5
    Format                      : UTF-8
    Codec ID                    : S_TEXT/UTF8
    Codec ID/Info               : UTF-8 Plain Text
    Duration                    : 1 h 51 min
    Bit rate                    : 35 b/s
    Count of elements           : 1175
    Stream size                 : 28.5 KiB (0%)
    Title                       : Español-SRT [CinemaniaHDD]
    Language                    : Spanish
    Default                     : No
    Forced                      : No

    Text #3
    ID                          : 6
    Format                      : UTF-8
    Codec ID                    : S_TEXT/UTF8
    Codec ID/Info               : UTF-8 Plain Text
    Duration                    : 1 h 50 min
    Bit rate                    : 35 b/s
    Count of elements           : 1204
    Stream size                 : 28.6 KiB (0%)
    Title                       : Ingles-SRT [CinemaniaHDD]
    Language                    : English
    Default                     : No
    Forced                      : No

    Menu
    00:00:00.000                : Chapter 1
    00:06:45.947                : Chapter 2
    00:13:42.322                : Chapter 3
    00:17:45.898                : Chapter 4
    00:21:26.535                : Chapter 5
    00:26:36.136                : Chapter 6
    00:34:03.667                : Chapter 7
    00:40:21.544                : Chapter 8
    00:47:31.974                : Chapter 9
    00:53:03.889                : Chapter 10
    00:58:06.483                : Chapter 11
    01:06:50.798                : Chapter 12
    01:10:18.464                : Chapter 13
    01:15:04.041                : Chapter 14
    01:22:16.306                : Chapter 15
    01:27:29.077                : Chapter 16
    01:33:22.263                : Chapter 17
    01:41:36.924                : Chapter 18
    01:47:23.228                : Chapter 19
    01:52:44.258                : Chapter 20

  • Peso: 4.53 GiB

Sinopsis

Descargar La Chica Danesa (2015) 1080p Latino-CMHDD. Drama basado en la verdadera historia de una pareja de artistas daneses, Einar y Gerda Wegener. La vida de este matrimonio dio un giro cuando Einar sustituyó a la modelo femenina que su mujer, Gerda, tenía que pintar. Cuando los retratos resultan ser un éxito, ella anima a su marido a adoptar una apariencia femenina. Lo que comenzó como un juego llevó a Einar a una metamorfosis inesperada.

Ficha técnica

  • Titulo original: The Danish Girl
  • Fecha de lanzamiento: 27-11-2015 (Belgium, United Kingdom, United States of America)
  • Director: Tom Hooper
  • Género: Drama, HD 1080p

Video trailer de la película

Enlaces de descarga

Rip de Bluray

Descargar La Chica Danesa (2015) 1080p Latino-CMHDD




Aportes de DPeliculasHDmega la pass es:dpeliculashdmega.org Aportes de CinemaniaHD la pass es:cinemaniahdd.com Aportes recientes:cinemaniahdd.net
Guardado en : Drama , HD 1080p

Películas relacionadas

  • El Oso (2022) Temporada 2 WEB-DL 1080p Latino

    El Oso (2022) Temporada 2 WEB-DL 1080p Latino

    2022
    El Oso (2022) Temporada 2 WEB-DL 1080p Latino

    0h 0m 2022

    Descargar El Oso (2022) Temporada 2 WEB-DL 1080p Latino. Carmy, un joven chef de alta cocina, vuelve...

    Director: Christopher Storer

    Género: Comedia

    Actores: Matty Matheson

  • El Oso (2022) Temporada 1 WEB-DL 1080p Latino

    El Oso (2022) Temporada 1 WEB-DL 1080p Latino

    2022
    El Oso (2022) Temporada 1 WEB-DL 1080p Latino

    0h 0m 2022

    Descargar El Oso (2022) Temporada 1 WEB-DL 1080p Latino. Carmy, un joven chef de alta cocina, vuelve...

    Director: Christopher Storer

    Género: Comedia

    Actores: Matty Matheson

  • Wolves (2022) AMZN WEB-DL 1080p Latino

    Wolves (2022) AMZN WEB-DL 1080p Latino

    2022
    Wolves (2022) AMZN WEB-DL 1080p Latino

    1h 43m 2022

    Un joven solitario se depara con una serie de crímenes sin resolver, que involucran animales mutilados...

    Director: Danny Dunlop

    Género: Crimen

    Actores: Rod Keith

descargar La Chica Danesa (2015) 1080p Latino-CMHDD 1080p 1080p gratis, La Chica Danesa (2015) 1080p Latino-CMHDD 1080p mega 1 link, La Chica Danesa (2015) 1080p Latino-CMHDD 1080p pelicula completa, descargar La Chica Danesa (2015) 1080p Latino-CMHDD 1080p gratis en mega.

La Chica Danesa (2015) 1080p Latino-CMHDD pelicula full hd, La Chica Danesa (2015) 1080p Latino-CMHDD mega latino, La Chica Danesa (2015) 1080p Latino-CMHDD 4k latino, La Chica Danesa (2015) 1080p Latino-CMHDD pelicula completa, La Chica Danesa (2015) 1080p Latino-CMHDD descargar gratis, descargar La Chica Danesa (2015) 1080p Latino-CMHDD pelicula latino, La Chica Danesa (2015) 1080p Latino-CMHDD 1 link mega, La Chica Danesa (2015) 1080p Latino-CMHDD 1 link google drive, La Chica Danesa (2015) 1080p Latino-CMHDD hd 1080p latino.
Comentarios 0