The Da Vinci Code (2006) [EXTENDED] Full HD 1080p Latino – CMHDD

190 vistas
1 estrella2 estrellas3 estrellas4 estrellas5 estrellas (Ninguna valoración todavía)
Cargando...

Información de The Da Vinci Code (2006) [EXTENDED] Full HD 1080p Latino – CMHDD

Datos de la película

  • Calidad: Full 1080p
  • Audio: Se especifica abajo de la Sinopsis
  • Subtitulos: Español Latino PGS
  • Resolución: 1920x1080p
  • Formato: MKV
  • Codec: H.264
  • Encoder: Dracarys
  • Mediainfo: Clic para Mostrar Datos Ver
  • Format                      : Matroska
    Format version              : Version 4
    File size                   : 7.64 GiB
    Duration                    : 2 h 54 min
    Overall bit rate mode       : Variable
    Overall bit rate            : 6 260 kb/s
    Movie name                  : The Da Vinci Code (2006) [EXTENDED] Full HD 1080p Latino - CMHDD
    Encoded date                : UTC 2021-02-05 00:52:42
    Writing application         : mkvmerge v51.0.0 ('I Wish') 64-bit
    Writing library             : libebml v1.4.0 + libmatroska v1.6.2

    Video
    ID                          : 1
    Format                      : AVC
    Format/Info                 : Advanced Video Codec
    Format profile              : High@L4.1
    Format settings             : CABAC / 4 Ref Frames
    Format settings, CABAC      : Yes
    Format settings, Reference  : 4 frames
    Codec ID                    : V_MPEG4/ISO/AVC
    Duration                    : 2 h 54 min
    Bit rate                    : 4 149 kb/s
    Width                       : 1 920 pixels
    Height                      : 1 080 pixels
    Display aspect ratio        : 16:9
    Frame rate mode             : Constant
    Frame rate                  : 23.976 (24000/1001) FPS
    Color space                 : YUV
    Chroma subsampling          : 4:2:0
    Bit depth                   : 8 bits
    Scan type                   : Progressive
    Bits/(Pixel*Frame)          : 0.083
    Stream size                 : 5.06 GiB (66%)
    Writing library             : x264 core 157 r2935 545de2f
    Encoding settings           : cabac=1 / ref=4 / deblock=1:0:0 / analyse=0x3:0x133 / me=tesa / subme=11 / psy=1 / psy_rd=1.00:0.00 / mixed_ref=1 / me_range=24 / chroma_me=1 / trellis=2 / 8x8dct=1 / cqm=0 / deadzone=21,11 / fast_pskip=0 / chroma_qp_offset=-2 / threads=24 / lookahead_threads=6 / sliced_threads=0 / nr=0 / decimate=1 / interlaced=0 / bluray_compat=0 / constrained_intra=0 / bframes=16 / b_pyramid=2 / b_adapt=2 / b_bias=0 / direct=3 / weightb=1 / open_gop=0 / weightp=2 / keyint=240 / keyint_min=24 / scenecut=40 / intra_refresh=0 / rc_lookahead=60 / rc=crf / mbtree=1 / crf=20.0 / qcomp=0.60 / qpmin=0 / qpmax=69 / qpstep=4 / vbv_maxrate=62500 / vbv_bufsize=78125 / crf_max=0.0 / nal_hrd=none / filler=0 / ip_ratio=1.40 / aq=1:1.00
    Default                     : Yes
    Forced                      : No
    Color range                 : Limited
    Color primaries             : BT.709
    Transfer characteristics    : BT.709
    Matrix coefficients         : BT.709

    Audio #1
    ID                          : 2
    Format                      : AC-3
    Format/Info                 : Audio Coding 3
    Commercial name             : Dolby Digital
    Codec ID                    : A_AC3
    Duration                    : 2 h 54 min
    Bit rate mode               : Constant
    Bit rate                    : 640 kb/s
    Channel(s)                  : 6 channels
    Channel layout              : L R C LFE Ls Rs
    Sampling rate               : 48.0 kHz
    Frame rate                  : 31.250 FPS (1536 SPF)
    Compression mode            : Lossy
    Stream size                 : 799 MiB (10%)
    Language                    : Spanish
    Service kind                : Complete Main
    Default                     : Yes
    Forced                      : No

    Audio #2
    ID                          : 3
    Format                      : MLP FBA
    Format/Info                 : Meridian Lossless Packing FBA
    Commercial name             : Dolby TrueHD
    Codec ID                    : A_TRUEHD
    Duration                    : 2 h 54 min
    Bit rate mode               : Variable
    Bit rate                    : 1 390 kb/s
    Maximum bit rate            : 2 871 kb/s
    Channel(s)                  : 6 channels
    Channel layout              : L R C LFE Ls Rs
    Sampling rate               : 48.0 kHz
    Frame rate                  : 1 200.000 FPS (40 SPF)
    Compression mode            : Lossless
    Stream size                 : 1.70 GiB (22%)
    Language                    : English
    Default                     : No
    Forced                      : No

    Text #1
    ID                          : 4
    Format                      : PGS
    Muxing mode                 : zlib
    Codec ID                    : S_HDMV/PGS
    Codec ID/Info               : Picture based subtitle format used on BDs/HD-DVDs
    Duration                    : 2 h 29 min
    Bit rate                    : 3 291 b/s
    Count of elements           : 398
    Stream size                 : 3.52 MiB (0%)
    Language                    : Spanish
    Default                     : No
    Forced                      : No

    Text #2
    ID                          : 5
    Format                      : PGS
    Muxing mode                 : zlib
    Codec ID                    : S_HDMV/PGS
    Codec ID/Info               : Picture based subtitle format used on BDs/HD-DVDs
    Duration                    : 2 h 44 min
    Bit rate                    : 30.1 kb/s
    Count of elements           : 3658
    Stream size                 : 35.5 MiB (0%)
    Language                    : Spanish
    Default                     : Yes
    Forced                      : No

  • Peso: 7.64 GiB

Sinopsis

El catedrático y afamado simbologista Robert Langdon se ve obligado a acudir una noche al Museo del Louvre, cuando el asesinato de un restaurador deja tras de sí un misterioso rastro de símbolos y pistas. Con la ayuda de la criptógrafa de la policía Sophie Neveu y poniendo en juego su propia vida, Langdon descubre que la obra de Leonardo Da Vinci esconde una serie de misterios que apuntan a una sociedad secreta encargada de custodiar un antiguo secreto que ha permanecido oculto durante dos mil años…

Latino: AC3 5.1  –  Ingles: TrueHD 5.1

Ficha técnica

Video trailer de la película

Enlaces de descarga

Rip de Bluray

Descargar The Da Vinci Code (2006) [EXTENDED] Full HD 1080p Latino – CMHDD




Aportes de DPeliculasHDmega la pass es:dpeliculashdmega.org Aportes de CinemaniaHD la pass es:cinemaniahdd.com
Guardado en : Misterio , Suspenso

Películas relacionadas

  • Gossip Girl (2021) Temporada 1 HMAX WEB-DL 1080p

    Gossip Girl (2021) Temporada 1 HMAX WEB-DL 1080p

    2021
    Gossip Girl (2021) Temporada 1 HMAX WEB-DL 1080p

    5.0 0h 0m 2021

    Ocho años después de que el sitio web original se apagara, una nueva generación de adolescentes de...

    Director: Joshua Safran

    Género: Drama

    Actores: Zión Moreno

  • The Hatred (2017) WEB-DL 1080p Latino

    The Hatred (2017) WEB-DL 1080p Latino

    2017
    The Hatred (2017) WEB-DL 1080p Latino

    5.0 1h 34m 2017

    Cuatro mujeres jóvenes viajan a la nueva casa de campo de su profesor universitario para una escapada...

    Director: Michael G. Kehoe

    Género: Suspenso

    Actores: Tim DeZarn

  • Servants of War (2019) WEB-DL 1080p Latino

    Servants of War (2019) WEB-DL 1080p Latino

    2019
    Servants of War (2019) WEB-DL 1080p Latino

    5.0 1h 38m 2019

    El conocido profesor Professor Jerzy Abramski es asesinado. De su investigación se encarga el inspector...

    Director: Mariusz Gawryś

    Género: Crimen

    Actores: Zbigniew Stryj

The Da Vinci Code (2006) [EXTENDED] Full HD 1080p Latino – CMHDD pelicula full hd, The Da Vinci Code (2006) [EXTENDED] Full HD 1080p Latino – CMHDD mega latino, The Da Vinci Code (2006) [EXTENDED] Full HD 1080p Latino – CMHDD 4k latino, The Da Vinci Code (2006) [EXTENDED] Full HD 1080p Latino – CMHDD pelicula completa, The Da Vinci Code (2006) [EXTENDED] Full HD 1080p Latino – CMHDD descargar gratis, descargar The Da Vinci Code (2006) [EXTENDED] Full HD 1080p Latino – CMHDD pelicula latino, The Da Vinci Code (2006) [EXTENDED] Full HD 1080p Latino – CMHDD 1 link mega, The Da Vinci Code (2006) [EXTENDED] Full HD 1080p Latino – CMHDD 1 link google drive, The Da Vinci Code (2006) [EXTENDED] Full HD 1080p Latino – CMHDD hd 1080p latino.
Comentarios 2
  • Hermayori - 10 febrero, 2021

    Muchas gracias por la película, muy buena! por favor no se puede ver los subtítulos, podrían arreglarlo. Gracias.

    • Dracarys - 10 febrero, 2021

      Los subtítulos están bien