×

¿Problemas para descargar con Mozilla, EDGE? Deshabilita la opción "Abrir vinculos en una pestaña nueva" tal como lo muestra ésta imagen.

The Cursed aka: Eight for Silver (2021) PLACEBO Full HD 1080p Latino

309 vistas

Información de The Cursed aka: Eight for Silver (2021) PLACEBO Full HD 1080p Latino

Datos de la película

  • Calidad: Full 1080p
  • Audio: Español Latino AC3 5.1 WEB-DL - Ingles DTS 5.1 BLURAY
  • Subtitulos: Español Latino PGS - Ingles PGS
  • Resolución: 1920x1080p
  • Formato: MKV
  • Codec: H.264
  • Encoder: Melkor
  • Mediainfo: Clic para Mostrar Datos Ver
  • The Cursed (2021) PLACEBO 1080p Latino.mkv
    Format                      : Matroska
    Format version              : Version 4
    File size                   : 4.46 GiB
    Duration                    : 1 h 51 min
    Overall bit rate            : 5 749 kb/s
    Movie name                  : The Cursed (2021) CinemaniaHDD.Net
    Encoded date                : UTC 2023-04-01 15:46:00
    Writing application         : mkvmerge v56.1.0 ('My Friend') 64-bit
    Writing library             : libebml v1.4.2 + libmatroska v1.6.4
    Attachments                 : CINEMANIAHD.png
    Site                        : CinemaniaHDD.Net
    Uploader                    : Melkor

    Video
    ID                          : 1
    Format                      : AVC
    Format/Info                 : Advanced Video Codec
    Format profile              : High@L4.1
    Format settings             : CABAC / 4 Ref Frames
    Format settings, CABAC      : Yes
    Format settings, Reference  : 4 frames
    Codec ID                    : V_MPEG4/ISO/AVC
    Duration                    : 1 h 51 min
    Bit rate                    : 3 778 kb/s
    Width                       : 1 920 pixels
    Height                      : 1 080 pixels
    Display aspect ratio        : 16:9
    Frame rate mode             : Constant
    Frame rate                  : 23.976 (24000/1001) FPS
    Color space                 : YUV
    Chroma subsampling          : 4:2:0
    Bit depth                   : 8 bits
    Scan type                   : Progressive
    Bits/(Pixel*Frame)          : 0.076
    Stream size                 : 2.93 GiB (66%)
    Title                       : Full HD1080p [CinemaniaHDD]
    Writing library             : x264 core 163 r3059 b684ebe0
    Encoding settings           : cabac=1 / ref=4 / deblock=1:0:0 / analyse=0x3:0x133 / me=tesa / subme=11 / psy=1 / psy_rd=1.00:0.00 / mixed_ref=1 / me_range=24 / chroma_me=1 / trellis=2 / 8x8dct=1 / cqm=0 / deadzone=21,11 / fast_pskip=0 / chroma_qp_offset=-2 / threads=24 / lookahead_threads=6 / sliced_threads=0 / nr=0 / decimate=1 / interlaced=0 / bluray_compat=0 / constrained_intra=0 / bframes=16 / b_pyramid=2 / b_adapt=2 / b_bias=0 / direct=3 / weightb=1 / open_gop=0 / weightp=2 / keyint=240 / keyint_min=24 / scenecut=40 / intra_refresh=0 / rc_lookahead=60 / rc=crf / mbtree=1 / crf=19.0 / qcomp=0.60 / qpmin=0 / qpmax=69 / qpstep=4 / vbv_maxrate=62500 / vbv_bufsize=78125 / crf_max=0.0 / nal_hrd=none / filler=0 / ip_ratio=1.40 / aq=1:1.00
    Default                     : Yes
    Forced                      : Yes
    Color range                 : Limited
    Color primaries             : BT.709
    Transfer characteristics    : BT.709
    Matrix coefficients         : BT.709

    Audio #1
    ID                          : 2
    Format                      : AC-3
    Format/Info                 : Audio Coding 3
    Commercial name             : Dolby Digital
    Codec ID                    : A_AC3
    Duration                    : 1 h 51 min
    Bit rate mode               : Constant
    Bit rate                    : 448 kb/s
    Channel(s)                  : 6 channels
    Channel layout              : L R C LFE Ls Rs
    Sampling rate               : 48.0 kHz
    Frame rate                  : 31.250 FPS (1536 SPF)
    Compression mode            : Lossy
    Stream size                 : 356 MiB (8%)
    Title                       : Español Latino [CinemaniaHDD]
    Language                    : Spanish
    Service kind                : Complete Main
    Default                     : Yes
    Forced                      : Yes

    Audio #2
    ID                          : 3
    Format                      : DTS
    Format/Info                 : Digital Theater Systems
    Codec ID                    : A_DTS
    Duration                    : 1 h 51 min
    Bit rate mode               : Constant
    Bit rate                    : 1 509 kb/s
    Channel(s)                  : 6 channels
    Channel layout              : C L R Ls Rs LFE
    Sampling rate               : 48.0 kHz
    Frame rate                  : 93.750 FPS (512 SPF)
    Bit depth                   : 24 bits
    Compression mode            : Lossy
    Stream size                 : 1.17 GiB (26%)
    Title                       : Ingles [CinemaniaHDD]
    Language                    : English
    Default                     : No
    Forced                      : No

    Text #1
    ID                          : 4
    ID in the original source m : 4609 (0x1201)
    Format                      : PGS
    Muxing mode                 : zlib
    Codec ID                    : S_HDMV/PGS
    Codec ID/Info               : Picture based subtitle format used on BDs/HD-DVDs
    Duration                    : 1 h 44 min
    Bit rate                    : 11.8 kb/s
    Count of elements           : 1550
    Stream size                 : 8.80 MiB (0%)
    Title                       : Español-PGS [CinemaniaHDD]
    Language                    : Spanish
    Default                     : No
    Forced                      : No
    Original source medium      : Blu-ray

    Text #2
    ID                          : 5
    ID in the original source m : 4608 (0x1200)
    Format                      : PGS
    Muxing mode                 : zlib
    Codec ID                    : S_HDMV/PGS
    Codec ID/Info               : Picture based subtitle format used on BDs/HD-DVDs
    Duration                    : 1 h 50 min
    Bit rate                    : 16.4 kb/s
    Count of elements           : 3162
    Stream size                 : 13.0 MiB (0%)
    Title                       : Ingles [CinemaniaHDD]
    Language                    : English
    Default                     : No
    Forced                      : No
    Original source medium      : Blu-ray

    Text #3
    ID                          : 6
    Format                      : UTF-8
    Codec ID                    : S_TEXT/UTF8
    Codec ID/Info               : UTF-8 Plain Text
    Duration                    : 1 h 41 min
    Bit rate                    : 0 b/s
    Count of elements           : 6
    Stream size                 : 62.0 Bytes (0%)
    Title                       : Forzados-SRT [CinemaniaHDD]
    Language                    : Spanish
    Default                     : Yes
    Forced                      : Yes

    Text #4
    ID                          : 7
    Format                      : UTF-8
    Codec ID                    : S_TEXT/UTF8
    Codec ID/Info               : UTF-8 Plain Text
    Duration                    : 1 h 44 min
    Bit rate                    : 20 b/s
    Count of elements           : 610
    Stream size                 : 15.5 KiB (0%)
    Title                       : Español-SRT [CinemaniaHDD]
    Language                    : Spanish
    Default                     : No
    Forced                      : No

    Menu
    00:00:00.000                : Chapter 01
    00:17:04.815                : Chapter 02
    00:35:23.162                : Chapter 03
    00:46:47.137                : Chapter 04
    01:02:36.002                : Chapter 05
    01:15:36.365                : Chapter 06
    01:36:25.112                : Chapter 07
    01:45:24.359                : Chapter 08

  • Peso: 4.46 GiB

Sinopsis

Descargar The Cursed aka: Eight for Silver (2021) PLACEBO Full HD 1080p Latino. A finales del siglo XIX, un hombre llega a una aldea remota para investigar el ataque de un animal salvaje, pero descubre una fuerza mucho más grande y siniestra que tiene a la mansión y a sus habitantes sometidos.

Ficha técnica

Video trailer de la película

Enlaces de descarga

Rip de Bluray

Descargar The Cursed aka: Eight for Silver (2021) PLACEBO Full HD 1080p Latino




Aportes de DPeliculasHDmega la pass es:dpeliculashdmega.org Aportes de CinemaniaHD la pass es:cinemaniahdd.com Aportes recientes:cinemaniahdd.net

Películas relacionadas

  • Inmaculada (2024) PLACEBO Full HD 1080p Latino

    Inmaculada (2024) PLACEBO Full HD 1080p Latino

    2024
    Inmaculada (2024) PLACEBO Full HD 1080p Latino

    1h 29m 2024

    Descargar Inmaculada (2024) PLACEBO Full HD 1080p Latino. Cecilia, una mujer de fe devota, recibe una...

    Director: Valentina Scuro

    Género: FULL 1080p Plateadas

    Actores: Viviane Florentine Nicolai

  • Tarot (2024) Full HD 1080p Latino-CMHDD

    Tarot (2024) Full HD 1080p Latino-CMHDD

    2024
    Tarot (2024) Full HD 1080p Latino-CMHDD

    1h 32m 2024

    Descargar Tarot (2024) Full HD 1080p Latino-CMHDD. Un grupo de amigos de la universidad comienzan a morir...

    Director: Spenser Cohen

    Género: FULL 1080p Plateadas

    Actores: Wolfgang Novogratz

  • Spider-Man 3 (2007) REMUX 4K HDR Latino – CMHDD

    Spider-Man 3 (2007) REMUX 4K HDR Latino – CMHDD

    2007
    Spider-Man 3 (2007) REMUX 4K HDR Latino – CMHDD

    2h 19m 2007

    The seemingly invincible Spider-Man goes up against an all-new crop of villains—including the shape-shifting...

    Director: Trudy Ramirez

    Género: 4K HDR

    Actores: Willem Dafoe

  • Un Heroe Anonimo (2024) Full HD 1080p Latino-CMHDD

    Un Heroe Anonimo (2024) Full HD 1080p Latino-CMHDD

    2024
    Un Heroe Anonimo (2024) Full HD 1080p Latino-CMHDD

    1h 53m 2024

    Descargar Un Heroe Anonimo (2024) Full HD 1080p Latino-CMHDD Basada en una extraordinaria historia real,...

    Director: Richard Ramsey

    Género: Drama

    Actores: Vin Morreale Jr

descargar The Cursed aka: Eight for Silver (2021) PLACEBO Full HD 1080p Latino Full 1080p 1080p gratis, The Cursed aka: Eight for Silver (2021) PLACEBO Full HD 1080p Latino Full 1080p mega 1 link, The Cursed aka: Eight for Silver (2021) PLACEBO Full HD 1080p Latino Full 1080p pelicula completa, descargar The Cursed aka: Eight for Silver (2021) PLACEBO Full HD 1080p Latino Full 1080p gratis en mega.

The Cursed aka: Eight for Silver (2021) PLACEBO Full HD 1080p Latino pelicula full hd, The Cursed aka: Eight for Silver (2021) PLACEBO Full HD 1080p Latino mega latino, The Cursed aka: Eight for Silver (2021) PLACEBO Full HD 1080p Latino 4k latino, The Cursed aka: Eight for Silver (2021) PLACEBO Full HD 1080p Latino pelicula completa, The Cursed aka: Eight for Silver (2021) PLACEBO Full HD 1080p Latino descargar gratis, descargar The Cursed aka: Eight for Silver (2021) PLACEBO Full HD 1080p Latino pelicula latino, The Cursed aka: Eight for Silver (2021) PLACEBO Full HD 1080p Latino 1 link mega, The Cursed aka: Eight for Silver (2021) PLACEBO Full HD 1080p Latino 1 link google drive, The Cursed aka: Eight for Silver (2021) PLACEBO Full HD 1080p Latino hd 1080p latino.
Comentarios 0