×

¿Problemas para descargar con Mozilla, EDGE? Deshabilita la opción "Abrir vinculos en una pestaña nueva" tal como lo muestra ésta imagen.

La maldicion de La Llorona (2019) Full HD 1080p Latino

2.524 vistas

Información de La maldicion de La Llorona (2019) Full HD 1080p Latino

Datos de la película

  • Calidad: Full 1080p
  • Audio: Se especifica abajo de la Sinopsis
  • Subtitulos: Español Latino PGS - Ingles PGS
  • Resolución: 1920x1080p
  • Formato: MKV
  • Codec: H.264
  • Encoder: CinefiloCool
  • Mediainfo: Clic para Mostrar Datos Ver
  • La Maldicion De La Llorona (2019) Full HD 1080p Latino-CMHDD.mkv
    Format                      : Matroska
    Format version              : Version 4
    File size                   : 4.69 GiB
    Duration                    : 1 h 33 min
    Overall bit rate mode       : Variable
    Overall bit rate            : 7 198 kb/s
    Movie name                  : The Curse of La Llorona (2019) CinemaniaHDD.Net
    Encoded date                : UTC 2019-07-21 22:22:15
    Writing application         : mkvmerge v35.0.0 ('All The Love In The World') 64-bit
    Writing library             : libebml v1.3.9 + libmatroska v1.5.2
    Attachments                 : CINEMANIAHD.png

    Video
    ID                          : 1
    Format                      : AVC
    Format/Info                 : Advanced Video Codec
    Format profile              : High@L4.1
    Format settings             : CABAC / 4 Ref Frames
    Format settings, CABAC      : Yes
    Format settings, ReFrames   : 4 frames
    Codec ID                    : V_MPEG4/ISO/AVC
    Duration                    : 1 h 33 min
    Bit rate                    : 3 137 kb/s
    Width                       : 1 920 pixels
    Height                      : 1 080 pixels
    Display aspect ratio        : 16:9
    Frame rate mode             : Constant
    Frame rate                  : 23.976 (24000/1001) FPS
    Color space                 : YUV
    Chroma subsampling          : 4:2:0
    Bit depth                   : 8 bits
    Scan type                   : Progressive
    Bits/(Pixel*Frame)          : 0.063
    Stream size                 : 2.04 GiB (44%)
    Title                       : Full HD1080p [Bluray]
    Writing library             : x264 core 157 r2935 545de2f
    Encoding settings           : cabac=1 / ref=4 / deblock=1:0:0 / analyse=0x3:0x133 / me=tesa / subme=11 / psy=1 / psy_rd=1.00:0.00 / mixed_ref=1 / me_range=24 / chroma_me=1 / trellis=2 / 8x8dct=1 / cqm=0 / deadzone=21,11 / fast_pskip=0 / chroma_qp_offset=-2 / threads=34 / lookahead_threads=8 / sliced_threads=0 / nr=0 / decimate=1 / interlaced=0 / bluray_compat=0 / constrained_intra=0 / bframes=16 / b_pyramid=2 / b_adapt=2 / b_bias=0 / direct=3 / weightb=1 / open_gop=0 / weightp=2 / keyint=240 / keyint_min=24 / scenecut=40 / intra_refresh=0 / rc_lookahead=60 / rc=crf / mbtree=1 / crf=19.0 / qcomp=0.60 / qpmin=0 / qpmax=69 / qpstep=4 / vbv_maxrate=62500 / vbv_bufsize=78125 / crf_max=0.0 / nal_hrd=none / filler=0 / ip_ratio=1.40 / aq=1:1.00
    Default                     : Yes
    Forced                      : No
    Color range                 : Limited
    Color primaries             : BT.709
    Transfer characteristics    : BT.709
    Matrix coefficients         : BT.709

    Audio #1
    ID                          : 2
    Format                      : AC-3
    Format/Info                 : Audio Coding 3
    Commercial name             : Dolby Digital
    Codec ID                    : A_AC3
    Duration                    : 1 h 33 min
    Bit rate mode               : Constant
    Bit rate                    : 448 kb/s
    Channel(s)                  : 6 channels
    Channel layout              : L R C LFE Ls Rs
    Sampling rate               : 48.0 kHz
    Frame rate                  : 31.250 FPS (1536 SPF)
    Bit depth                   : 16 bits
    Compression mode            : Lossy
    Stream size                 : 299 MiB (6%)
    Title                       : AC3_5.1_Bluray_Esp
    Language                    : Spanish
    Service kind                : Complete Main
    Default                     : Yes
    Forced                      : Yes

    Audio #2
    ID                          : 3
    Format                      : MLP FBA 16-ch
    Format/Info                 : Meridian Lossless Packing FBA with 16-channel presentation
    Commercial name             : Dolby TrueHD with Dolby Atmos
    Codec ID                    : A_TRUEHD
    Duration                    : 1 h 33 min
    Bit rate mode               : Variable
    Bit rate                    : 3 531 kb/s
    Maximum bit rate            : 6 201 kb/s
    Channel(s)                  : 8 channels
    Channel layout              : L R C LFE Ls Rs Lb Rb
    Sampling rate               : 48.0 kHz
    Frame rate                  : 1 200.000 FPS (40 SPF)
    Compression mode            : Lossless
    Stream size                 : 2.30 GiB (49%)
    Title                       : THD_7.1_Bluray_Eng
    Language                    : English
    Default                     : No
    Forced                      : No
    Number of dynamic objects   : 15
    Bed channel count           : 1 channel
    Bed channel configuration   : LFE

    Text #1
    ID                          : 4
    Format                      : PGS
    Muxing mode                 : zlib
    Codec ID                    : S_HDMV/PGS
    Codec ID/Info               : Picture based subtitle format used on BDs/HD-DVDs
    Duration                    : 13 min 16 s
    Bit rate                    : 574 b/s
    Count of elements           : 6
    Stream size                 : 55.9 KiB (0%)
    Title                       : Sub_Forzados [PGS]
    Language                    : Spanish
    Default                     : Yes
    Forced                      : Yes

    Text #2
    ID                          : 5
    Format                      : PGS
    Muxing mode                 : zlib
    Codec ID                    : S_HDMV/PGS
    Codec ID/Info               : Picture based subtitle format used on BDs/HD-DVDs
    Duration                    : 1 h 32 min
    Bit rate                    : 15.0 kb/s
    Count of elements           : 1484
    Stream size                 : 9.90 MiB (0%)
    Title                       : Sub_Esp [PGS]
    Language                    : Spanish
    Default                     : No
    Forced                      : No

    Text #3
    ID                          : 6
    Format                      : PGS
    Muxing mode                 : zlib
    Codec ID                    : S_HDMV/PGS
    Codec ID/Info               : Picture based subtitle format used on BDs/HD-DVDs
    Duration                    : 1 h 32 min
    Bit rate                    : 21.6 kb/s
    Count of elements           : 1950
    Stream size                 : 14.4 MiB (0%)
    Title                       : Sub_Eng [PGS]
    Language                    : English
    Default                     : No
    Forced                      : No

    Text #4
    ID                          : 7
    Format                      : UTF-8
    Codec ID                    : S_TEXT/UTF8
    Codec ID/Info               : UTF-8 Plain Text
    Duration                    : 13 min 16 s
    Bit rate                    : 0 b/s
    Count of elements           : 3
    Stream size                 : 75.0 Bytes (0%)
    Title                       : Sub_Forzados
    Language                    : Spanish
    Default                     : No
    Forced                      : No

    Text #5
    ID                          : 8
    Format                      : UTF-8
    Codec ID                    : S_TEXT/UTF8
    Codec ID/Info               : UTF-8 Plain Text
    Duration                    : 1 h 32 min
    Bit rate                    : 24 b/s
    Count of elements           : 741
    Stream size                 : 16.6 KiB (0%)
    Title                       : Sub_Esp
    Language                    : Spanish
    Default                     : No
    Forced                      : No

    Menu
    00:00:00.000                : :Chapter 1
    00:09:24.355                : :Chapter 2
    00:18:21.267                : :Chapter 3
    00:28:09.104                : :Chapter 4
    00:38:14.209                : :Chapter 5
    00:48:09.595                : :Chapter 6
    00:58:07.317                : :Chapter 7
    01:09:04.557                : :Chapter 8
    01:18:15.149                : :Chapter 9
    01:26:30.727                : :Chapter 10

  • Peso: 4.69 GiB

Sinopsis

Descargar La maldicion de La Llorona (2019) Full HD 1080p Latino. La Llorona es una aparición tenebrosa, atrapada entre el Cielo y el Infierno, con un destino terrible sellado por su propia mano. La mera mención de su nombre ha causado terror en todo el mundo durante generaciones. En vida, ahogó a sus hijos en una rabia de celos, arrojándose en el río tras ver como mató a sus hijos violentamente. Ahora sus lágrimas son eternas, letales, y aquellos que escuchan su llamada de muerte en la noche están condenados. Se arrastra en las sombras y ataca a los niños, desesperada por reemplazar a los suyos. A medida que los siglos han pasado, su deseo se ha vuelto más voraz y sus métodos más terroríficos.

Audio Español Latino AC3 5.1 Bluray – Ingles TrueHD 7.1 Bluray

RESUBIDO!!!

Ficha técnica

Video trailer de la película

Enlaces de descarga

Rip de Bluray

Descargar La maldicion de La Llorona (2019) Full HD 1080p Latino




Aportes de DPeliculasHDmega la pass es:dpeliculashdmega.org Aportes de CinemaniaHD la pass es:cinemaniahdd.com

Películas relacionadas

  • Tren Bala (2022) WEB-DL 4K UHD HDR Latino

    Tren Bala (2022) WEB-DL 4K UHD HDR Latino

    2022
    Tren Bala (2022) WEB-DL 4K UHD HDR Latino

    2h 7m 2022

    Descargar Tren Bala (2022) WEB-DL 4K UHD HDR Latino. El desafortunado asesino "Catarina" está decidido...

    Director: Paul Barry

    Género: 4K HDR

    Actores: Zooey Miyoshi

  • Tren Bala (2022) AMZN WEB-DL 1080p Latino

    Tren Bala (2022) AMZN WEB-DL 1080p Latino

    2022
    Tren Bala (2022) AMZN WEB-DL 1080p Latino

    2h 7m 2022

    Descargar Tren Bala (2022) AMZN WEB-DL 1080p Latino. Cinco asesinos a sueldo se encuentran a bordo de...

    Director: Paul Barry

    Género: Acción

    Actores: Zooey Miyoshi

  • Infiniti (2022) Primera Temporada WEB-DL 1080p Latino

    Infiniti (2022) Primera Temporada WEB-DL 1080p Latino

    2022
    Infiniti (2022) Primera Temporada WEB-DL 1080p Latino

    0h 52m 2022

    La ISS, la Estación Espacial Internacional se ha quedado en silencio. La tripulación está en peligro....

    Director: Stéphane Pannetier

    Género: Drama

    Actores: Vlad Ivanov

  • Poltergeist (1982) REMUX 1080p Latino – CMHDD

    Poltergeist (1982) REMUX 1080p Latino – CMHDD

    1982
    Poltergeist (1982) REMUX 1080p Latino – CMHDD

    1h 54m 1982

    Una familia americana de clase media se traslada a vivir e una nueva casa en un aparentemente idílico...

    Director: Tobe Hooper

    Género: Terror

    Actores: Zelda Rubinstein

  • Poltergeist (1982) REMUX 4K Latino – CMHDD

    Poltergeist (1982) REMUX 4K Latino – CMHDD

    1982
    Poltergeist (1982) REMUX 4K Latino – CMHDD

    1h 54m 1982

    Una familia americana de clase media se traslada a vivir e una nueva casa en un aparentemente idílico...

    Director: Tobe Hooper

    Género: Terror

    Actores: Zelda Rubinstein

descargar La maldicion de La Llorona (2019) Full HD 1080p Latino Full 1080p 1080p gratis, La maldicion de La Llorona (2019) Full HD 1080p Latino Full 1080p mega 1 link, La maldicion de La Llorona (2019) Full HD 1080p Latino Full 1080p pelicula completa, descargar La maldicion de La Llorona (2019) Full HD 1080p Latino Full 1080p gratis en mega.

La maldicion de La Llorona (2019) Full HD 1080p Latino pelicula full hd, La maldicion de La Llorona (2019) Full HD 1080p Latino mega latino, La maldicion de La Llorona (2019) Full HD 1080p Latino 4k latino, La maldicion de La Llorona (2019) Full HD 1080p Latino pelicula completa, La maldicion de La Llorona (2019) Full HD 1080p Latino descargar gratis, descargar La maldicion de La Llorona (2019) Full HD 1080p Latino pelicula latino, La maldicion de La Llorona (2019) Full HD 1080p Latino 1 link mega, La maldicion de La Llorona (2019) Full HD 1080p Latino 1 link google drive, La maldicion de La Llorona (2019) Full HD 1080p Latino hd 1080p latino.
Comentarios 1
  • ra1apm - 07 marzo, 2020

    Al fin puedo verla, en buena calidad. Gracias.