×

¿Problemas para descargar con Mozilla, EDGE? Deshabilita la opción "Abrir vinculos en una pestaña nueva" tal como lo muestra ésta imagen.

Una Guerra brillante (2019) REMUX 1080p Latino

1.048 vistas

Información de Una Guerra brillante (2019) REMUX 1080p Latino

Datos de la película

  • Calidad: Full 1080p
  • Audio: Español Latino AC3 5.1 BLURAY - Ingles DTS 5.1 BLURAY
  • Subtitulos: Español Latino SRT- FORZADOS SRT
  • Resolución: 1920x1080p
  • Formato: MKV
  • Codec: H.264
  • Encoder: CinefiloCool
  • Mediainfo: Clic para Mostrar Datos Ver
  • The Current War (2019) REMUX 1080p Latino-CMHDD.mkv
    Format                      : Matroska
    Format version              : Version 4
    File size                   : 24.2 GiB
    Duration                    : 1 h 47 min
    Overall bit rate mode       : Variable
    Overall bit rate            : 32.2 Mb/s
    Movie name                  : The Current War (2019) CinemaniaHDD.Net
    Encoded date                : UTC 2020-03-19 05:48:43
    Writing application         : mkvmerge v42.0.0 ('Overtime') 64-bit
    Writing library             : libebml v1.3.10 + libmatroska v1.5.2
    Attachments                 : CINEMANIAHD.png

    Video
    ID                          : 1
    Format                      : AVC
    Format/Info                 : Advanced Video Codec
    Format profile              : High@L4.1
    Format settings             : CABAC / 4 Ref Frames
    Format settings, CABAC      : Yes
    Format settings, ReFrames   : 4 frames
    Codec ID                    : V_MPEG4/ISO/AVC
    Duration                    : 1 h 47 min
    Bit rate mode               : Variable
    Bit rate                    : 29.8 Mb/s
    Maximum bit rate            : 33.0 Mb/s
    Width                       : 1 920 pixels
    Height                      : 1 080 pixels
    Display aspect ratio        : 16:9
    Frame rate mode             : Constant
    Frame rate                  : 24.000 FPS
    Color space                 : YUV
    Chroma subsampling          : 4:2:0
    Bit depth                   : 8 bits
    Scan type                   : Progressive
    Bits/(Pixel*Frame)          : 0.599
    Stream size                 : 22.5 GiB (93%)
    Title                       : Full HD1080p [REMUX]
    Default                     : Yes
    Forced                      : Yes

    Audio #1
    ID                          : 2
    Format                      : AC-3
    Format/Info                 : Audio Coding 3
    Commercial name             : Dolby Digital
    Codec ID                    : A_AC3
    Duration                    : 1 h 47 min
    Bit rate mode               : Constant
    Bit rate                    : 448 kb/s
    Channel(s)                  : 6 channels
    Channel layout              : L R C LFE Ls Rs
    Sampling rate               : 48.0 kHz
    Frame rate                  : 31.250 FPS (1536 SPF)
    Bit depth                   : 16 bits
    Compression mode            : Lossy
    Stream size                 : 346 MiB (1%)
    Title                       : AC3_5.1_Bluray_Esp
    Language                    : Spanish
    Service kind                : Complete Main
    Default                     : Yes
    Forced                      : Yes

    Audio #2
    ID                          : 3
    Format                      : DTS XLL
    Format/Info                 : Digital Theater Systems
    Commercial name             : DTS-HD Master Audio
    Codec ID                    : A_DTS
    Duration                    : 1 h 47 min
    Bit rate mode               : Variable
    Bit rate                    : 1 862 kb/s
    Channel(s)                  : 6 channels
    Channel layout              : C L R Ls Rs LFE
    Sampling rate               : 48.0 kHz
    Frame rate                  : 93.750 FPS (512 SPF)
    Bit depth                   : 16 bits
    Compression mode            : Lossless
    Stream size                 : 1.40 GiB (6%)
    Title                       : DTS-HD_5.1_Bluray_Eng
    Language                    : English
    Default                     : No
    Forced                      : No

    Text #1
    ID                          : 4
    Format                      : UTF-8
    Codec ID                    : S_TEXT/UTF8
    Codec ID/Info               : UTF-8 Plain Text
    Duration                    : 1 h 34 min
    Bit rate                    : 0 b/s
    Count of elements           : 10
    Stream size                 : 348 Bytes (0%)
    Title                       : Sub_Forzados
    Language                    : Spanish
    Default                     : Yes
    Forced                      : Yes

    Text #2
    ID                          : 5
    Format                      : UTF-8
    Codec ID                    : S_TEXT/UTF8
    Codec ID/Info               : UTF-8 Plain Text
    Duration                    : 1 h 43 min
    Bit rate                    : 72 b/s
    Count of elements           : 1530
    Stream size                 : 55.1 KiB (0%)
    Title                       : Sub_Esp
    Language                    : Spanish
    Default                     : No
    Forced                      : No

    Text #3
    ID                          : 6
    Format                      : PGS
    Muxing mode                 : zlib
    Codec ID                    : S_HDMV/PGS
    Codec ID/Info               : Picture based subtitle format used on BDs/HD-DVDs
    Duration                    : 1 h 40 min
    Bit rate                    : 55.7 kb/s
    Count of elements           : 2712
    Stream size                 : 40.3 MiB (0%)
    Title                       : Sub_Eng [PGS]
    Language                    : English
    Default                     : No
    Forced                      : No

    Menu
    00:00:00.000                : en:Chapter 01
    00:08:25.250                : en:Chapter 02
    00:14:57.583                : en:Chapter 03
    00:24:11.416                : en:Chapter 04
    00:32:44.250                : en:Chapter 05
    00:43:11.833                : en:Chapter 06
    00:50:58.666                : en:Chapter 07
    01:02:35.416                : en:Chapter 08
    01:12:04.333                : en:Chapter 09
    01:19:09.458                : en:Chapter 10
    01:26:40.416                : en:Chapter 11
    01:33:08.250                : en:Chapter 12

  • Peso: 24.2 GiB

Sinopsis

Descargar Una guerra brillante (2019) REMUX 1080p Latino. Alfonso Gómez-Rejón (Yo, él y Raquel) es el encargado de dirigir esta película basada en hechos reales sobre la feroz competencia que mantuvieron los inventores Thomas Edison y George Westinghouse con respecto a la comercialización de la bombilla eléctrica durante el siglo XIX.

Nota: Pelicula de 2019 Estrenada en 2017 en el  Festival Internacional de Cine de Toronto (TIFF)

Actualizado con audio Latino 🙂

Ficha técnica

Video trailer de la película

Enlaces de descarga

Rip de Bluray

Descargar Una Guerra brillante (2019) REMUX 1080p Latino




Aportes de DPeliculasHDmega la pass es:dpeliculashdmega.org Aportes de CinemaniaHD la pass es:cinemaniahdd.com
Guardado en : Drama , Historia , Remux

Películas relacionadas

descargar Una Guerra brillante (2019) REMUX 1080p Latino Full 1080p 1080p gratis, Una Guerra brillante (2019) REMUX 1080p Latino Full 1080p mega 1 link, Una Guerra brillante (2019) REMUX 1080p Latino Full 1080p pelicula completa, descargar Una Guerra brillante (2019) REMUX 1080p Latino Full 1080p gratis en mega.

Una Guerra brillante (2019) REMUX 1080p Latino pelicula full hd, Una Guerra brillante (2019) REMUX 1080p Latino mega latino, Una Guerra brillante (2019) REMUX 1080p Latino 4k latino, Una Guerra brillante (2019) REMUX 1080p Latino pelicula completa, Una Guerra brillante (2019) REMUX 1080p Latino descargar gratis, descargar Una Guerra brillante (2019) REMUX 1080p Latino pelicula latino, Una Guerra brillante (2019) REMUX 1080p Latino 1 link mega, Una Guerra brillante (2019) REMUX 1080p Latino 1 link google drive, Una Guerra brillante (2019) REMUX 1080p Latino hd 1080p latino.
Comentarios 0