×

¿Problemas para descargar con Mozilla, EDGE? Deshabilita la opción "Abrir vinculos en una pestaña nueva" tal como lo muestra ésta imagen.

The Crown (2020) Temporada 4 NF WEB-DL 1080p Latino

66 vistas

Información de The Crown (2020) Temporada 4 NF WEB-DL 1080p Latino

Datos de la película

  • Calidad: WEBDL
  • Audio: Español Latino E-AC3 5.1 Netflix - Ingles E-AC3 5.1 Netflix
  • Subtitulos: Español Latino SRT- FORZADOS SRT
  • Resolución: 1920x1080p
  • Formato: MKV
  • Codec: H.264
  • Encoder: Melkor
  • Mediainfo: Clic para Mostrar Datos Ver
  • The Crown S04E01 (2020) NF WEB 1080p Latino.mkv
    Format                      : Matroska
    Format version              : Version 4
    File size                   : 2.29 GiB
    Duration                    : 54 min 18 s
    Overall bit rate mode       : Variable
    Overall bit rate            : 6 034 kb/s
    Movie name                  : The Crown S04E01 - Gold Stick  CinemaniaHDD.Net
    Encoded date                : UTC 2024-01-08 08:18:16
    Writing application         : mkvmerge v59.0.0 ('Shining Star') 64-bit
    Writing library             : libebml v1.4.2 + libmatroska v1.6.4
    Attachments                 : CINEMANIAHD.png
    Site                        : CinemaniaHDD.Net
    Uploader                    : Melkor

    Video
    ID                          : 1
    Format                      : AVC
    Format/Info                 : Advanced Video Codec
    Format profile              : Main@L4
    Format settings             : CABAC / 3 Ref Frames
    Format settings, CABAC      : Yes
    Format settings, Reference  : 3 frames
    Codec ID                    : V_MPEG4/ISO/AVC
    Duration                    : 54 min 18 s
    Bit rate mode               : Variable
    Bit rate                    : 4 752 kb/s
    Nominal bit rate            : 5 000 kb/s
    Maximum bit rate            : 7 500 kb/s
    Width                       : 1 920 pixels
    Height                      : 1 080 pixels
    Display aspect ratio        : 16:9
    Frame rate mode             : Constant
    Frame rate                  : 25.000 FPS
    Color space                 : YUV
    Chroma subsampling          : 4:2:0
    Bit depth                   : 8 bits
    Scan type                   : Progressive
    Bits/(Pixel*Frame)          : 0.092
    Stream size                 : 1.80 GiB (79%)
    Title                       : WEB HD1080p [CinemaniaHDD]
    Writing library             : x264 core 148 r2727 7d026e8
    Encoding settings           : cabac=1 / ref=3 / deblock=1:0:0 / analyse=0x1:0x111 / me=umh / subme=10 / psy=1 / psy_rd=1.00:0.00 / mixed_ref=1 / me_range=24 / chroma_me=1 / trellis=2 / 8x8dct=0 / cqm=0 / deadzone=21,11 / fast_pskip=1 / chroma_qp_offset=-2 / threads=6 / lookahead_threads=1 / sliced_threads=0 / nr=0 / decimate=1 / interlaced=0 / bluray_compat=0 / stitchable=1 / constrained_intra=0 / bframes=2 / b_pyramid=0 / b_adapt=2 / b_bias=0 / direct=3 / weightb=1 / open_gop=0 / weightp=2 / keyint=250 / keyint_min=126 / scenecut=0 / intra_refresh=0 / rc_lookahead=50 / rc=2pass / mbtree=1 / bitrate=5000 / ratetol=1.0 / qcomp=0.50 / qpmin=6 / qpmax=51 / qpstep=4 / cplxblur=20.0 / qblur=0.5 / vbv_maxrate=7500 / vbv_bufsize=10000 / nal_hrd=vbr / filler=0 / ip_ratio=1.40 / aq=1:1.00
    Default                     : Yes
    Forced                      : No

    Audio #1
    ID                          : 2
    Format                      : E-AC-3
    Format/Info                 : Enhanced AC-3
    Commercial name             : Dolby Digital Plus
    Codec ID                    : A_EAC3
    Duration                    : 54 min 18 s
    Bit rate mode               : Constant
    Bit rate                    : 640 kb/s
    Channel(s)                  : 6 channels
    Channel layout              : L R C LFE Ls Rs
    Sampling rate               : 48.0 kHz
    Frame rate                  : 31.250 FPS (1536 SPF)
    Compression mode            : Lossy
    Stream size                 : 249 MiB (11%)
    Title                       : Español Latino [CinemaniaHDD]
    Language                    : Spanish
    Service kind                : Complete Main
    Default                     : Yes
    Forced                      : No

    Audio #2
    ID                          : 3
    Format                      : E-AC-3
    Format/Info                 : Enhanced AC-3
    Commercial name             : Dolby Digital Plus
    Codec ID                    : A_EAC3
    Duration                    : 54 min 18 s
    Bit rate mode               : Constant
    Bit rate                    : 640 kb/s
    Channel(s)                  : 6 channels
    Channel layout              : L R C LFE Ls Rs
    Sampling rate               : 48.0 kHz
    Frame rate                  : 31.250 FPS (1536 SPF)
    Compression mode            : Lossy
    Stream size                 : 249 MiB (11%)
    Title                       : Ingles [CinemaniaHDD]
    Language                    : English
    Service kind                : Complete Main
    Default                     : No
    Forced                      : No

    Text #1
    ID                          : 4
    Format                      : UTF-8
    Codec ID                    : S_TEXT/UTF8
    Codec ID/Info               : UTF-8 Plain Text
    Duration                    : 52 min 18 s
    Bit rate                    : 0 b/s
    Count of elements           : 9
    Stream size                 : 295 Bytes (0%)
    Title                       : Forzados-SRT [CinemaniaHDD]
    Language                    : Spanish
    Default                     : Yes
    Forced                      : Yes

    Text #2
    ID                          : 5
    Format                      : UTF-8
    Codec ID                    : S_TEXT/UTF8
    Codec ID/Info               : UTF-8 Plain Text
    Duration                    : 52 min 18 s
    Bit rate                    : 48 b/s
    Count of elements           : 581
    Stream size                 : 18.6 KiB (0%)
    Title                       : Español-SRT [CinemaniaHDD]
    Language                    : Spanish
    Default                     : No
    Forced                      : No

    Text #3
    ID                          : 6
    Format                      : UTF-8
    Codec ID                    : S_TEXT/UTF8
    Codec ID/Info               : UTF-8 Plain Text
    Duration                    : 50 min 30 s
    Bit rate                    : 60 b/s
    Count of elements           : 678
    Stream size                 : 22.5 KiB (0%)
    Title                       : Ingles-SRT [CinemaniaHDD]
    Language                    : English
    Default                     : No
    Forced                      : No

  • Peso: 2.3 GiB -- 22.9 GiB -- 10 Chapters

Sinopsis

Descargar The Crown (2020) Temporada 4 NF WEB-DL 1080p Latino. Las rivalidades políticas y el romance del reinado de la reina Isabel II y los acontecimientos que marcaron la segunda mitad del siglo XX.
Temporada 4: A medida que la década de 1970 llega a su fin, la reina Isabel y su familia se preocupan por salvaguardar la línea de sucesión asegurándose una novia adecuada para el príncipe Carlos, que aún no se ha casado a los 30 años. A medida que la nación comienza a sentir el impacto de las políticas divisivas Introducida por la primera primera ministra de Gran Bretaña, Margaret Thatcher, surgen tensiones entre ella y la reina que solo empeoran a medida que Thatcher lleva al país a la Guerra de las Malvinas, generando conflictos dentro de la Commonwealth. Si bien el romance de Charles con una joven Lady Diana Spencer proporciona un cuento de hadas muy necesario para unir al pueblo británico, a puerta cerrada, la familia real se divide cada vez más.

Ficha técnica

Video trailer de la película

Enlaces de descarga

Rip de Bluray

Descargar The Crown (2020) Temporada 4 NF WEB-DL 1080p Latino




Aportes de DPeliculasHDmega la pass es:dpeliculashdmega.org Aportes de CinemaniaHD la pass es:cinemaniahdd.com Aportes recientes:cinemaniahdd.net
Guardado en : Drama , Netflix , Series

Películas relacionadas

descargar The Crown (2020) Temporada 4 NF WEB-DL 1080p Latino WEBDL 1080p gratis, The Crown (2020) Temporada 4 NF WEB-DL 1080p Latino WEBDL mega 1 link, The Crown (2020) Temporada 4 NF WEB-DL 1080p Latino WEBDL serie completa, descargar The Crown (2020) Temporada 4 NF WEB-DL 1080p Latino WEBDL gratis en mega.

The Crown (2020) Temporada 4 NF WEB-DL 1080p Latino pelicula full hd, The Crown (2020) Temporada 4 NF WEB-DL 1080p Latino mega latino, The Crown (2020) Temporada 4 NF WEB-DL 1080p Latino 4k latino, The Crown (2020) Temporada 4 NF WEB-DL 1080p Latino pelicula completa, The Crown (2020) Temporada 4 NF WEB-DL 1080p Latino descargar gratis, descargar The Crown (2020) Temporada 4 NF WEB-DL 1080p Latino pelicula latino, The Crown (2020) Temporada 4 NF WEB-DL 1080p Latino 1 link mega, The Crown (2020) Temporada 4 NF WEB-DL 1080p Latino 1 link google drive, The Crown (2020) Temporada 4 NF WEB-DL 1080p Latino hd 1080p latino.
Comentarios 0