×

¿Problemas para descargar con Mozilla, EDGE? Deshabilita la opción "Abrir vinculos en una pestaña nueva" tal como lo muestra ésta imagen.

The Crow (1994) REMUX 1080p Latino – CMHDD

689 vistas

Información de The Crow (1994) REMUX 1080p Latino – CMHDD

Datos de la película

  • Calidad: Full 1080p
  • Audio: Se especifica abajo de la Sinopsis
  • Subtitulos: Español Latino SRT
  • Resolución: 1920x1080p
  • Formato: MKV
  • Codec: H.264
  • Encoder: Dracarys
  • Mediainfo: Clic para Mostrar Datos Ver
  • Format                      : Matroska
    Format version              : Version 4
    File size                   : 28.4 GiB
    Duration                    : 1 h 41 min
    Overall bit rate mode       : Variable
    Overall bit rate            : 39.9 Mb/s
    Movie name                  : The Crow (1994) REMUX 1080p Latino - CMHDD
    Encoded date                : UTC 2022-02-20 16:53:37
    Writing application         : mkvmerge v17.0.0 ('Be Ur Friend') 64-bit
    Writing library             : libebml v1.3.5 + libmatroska v1.4.8

    Video
    ID                          : 1
    Format                      : AVC
    Format/Info                 : Advanced Video Codec
    Format profile              : High@L4.1
    Format settings             : CABAC / 4 Ref Frames
    Format settings, CABAC      : Yes
    Format settings, Reference  : 4 frames
    Codec ID                    : V_MPEG4/ISO/AVC
    Duration                    : 1 h 41 min
    Bit rate mode               : Constant
    Bit rate                    : 35.3 Mb/s
    Nominal bit rate            : 38.0 Mb/s
    Width                       : 1 920 pixels
    Height                      : 1 080 pixels
    Display aspect ratio        : 16:9
    Frame rate mode             : Constant
    Frame rate                  : 23.976 (24000/1001) FPS
    Color space                 : YUV
    Chroma subsampling          : 4:2:0
    Bit depth                   : 8 bits
    Scan type                   : Progressive
    Bits/(Pixel*Frame)          : 0.710
    Stream size                 : 25.1 GiB (89%)
    Default                     : Yes
    Forced                      : No

    Audio #1
    ID                          : 2
    Format                      : DTS XLL
    Format/Info                 : Digital Theater Systems
    Commercial name             : DTS-HD Master Audio
    Codec ID                    : A_DTS
    Duration                    : 1 h 41 min
    Bit rate mode               : Variable
    Bit rate                    : 3 918 kb/s
    Channel(s)                  : 6 channels
    Channel layout              : C L R Ls Rs LFE
    Sampling rate               : 48.0 kHz
    Frame rate                  : 93.750 FPS (512 SPF)
    Bit depth                   : 24 bits
    Compression mode            : Lossless
    Stream size                 : 2.79 GiB (10%)
    Language                    : English
    Default                     : No
    Forced                      : No

    Audio #2
    ID                          : 3
    Format                      : AC-3
    Format/Info                 : Audio Coding 3
    Commercial name             : Dolby Digital
    Codec ID                    : A_AC3
    Duration                    : 1 h 41 min
    Bit rate mode               : Constant
    Bit rate                    : 640 kb/s
    Channel(s)                  : 6 channels
    Channel layout              : L R C LFE Ls Rs
    Sampling rate               : 48.0 kHz
    Frame rate                  : 31.250 FPS (1536 SPF)
    Compression mode            : Lossy
    Delay relative to video     : 11 s 0 ms
    Stream size                 : 466 MiB (2%)
    Language                    : Spanish
    Service kind                : Complete Main
    Default                     : Yes
    Forced                      : No

    Text
    ID                          : 4
    Format                      : UTF-8
    Codec ID                    : S_TEXT/UTF8
    Codec ID/Info               : UTF-8 Plain Text
    Duration                    : 1 h 33 min
    Bit rate                    : 34 b/s
    Count of elements           : 729
    Stream size                 : 23.9 KiB (0%)
    Language                    : Spanish
    Default                     : No
    Forced                      : No

    Menu
    00:00:00.000                : en:Chapter 1
    00:04:33.690                : en:Chapter 2
    00:16:57.558                : en:Chapter 3
    00:22:05.365                : en:Chapter 4
    00:35:26.999                : en:Chapter 5
    00:44:37.549                : en:Chapter 6
    00:48:41.043                : en:Chapter 7
    00:52:03.870                : en:Chapter 8
    00:59:43.997                : en:Chapter 9
    01:01:11.584                : en:Chapter 10
    01:02:34.000                : en:Chapter 11
    01:06:02.249                : en:Chapter 12
    01:07:16.949                : en:Chapter 13
    01:09:29.915                : en:Chapter 14
    01:17:58.465                : en:Chapter 15
    01:21:14.619                : en:Chapter 16
    01:32:55.778                : en:Chapter 17
    01:34:21.113                : en:Chapter 18

  • Peso: 28.4 GiB

Sinopsis

Eric Draven y Shelly Websyter están a punto de casarse, pero la noche antes del enlace son asesinados brutalmente. Un año después, el alma de Eric vuelve a la Tierra en forma de cuervo para vengarse.

 

Latino: Ac3 5.1  –  Inglés: DTS 5.1

Ficha técnica

Video trailer de la película

Enlaces de descarga

Rip de Bluray

Descargar The Crow (1994) REMUX 1080p Latino – CMHDD


Aportes de DPeliculasHDmega la pass es:dpeliculashdmega.org Aportes de CinemaniaHD la pass es:cinemaniahdd.com
Guardado en : Acción , Fantasía , Suspenso

Películas relacionadas

  • Corazón de tinta (2008) Full HD 1080p Latino

    Corazón de tinta (2008) Full HD 1080p Latino

    2008
    Corazón de tinta (2008) Full HD 1080p Latino

    1h 46m 2008

    Descargar Corazón de tinta (2008) Full HD 1080p Latino. Mortimer “Mo” Folchart y su hija de 12 años,...

    Director: Sharon Mansfield

    Género: Aventura

    Actores: Terry Cavanagh

  • Corazón de tinta (2008) REMUX 1080p Latino

    Corazón de tinta (2008) REMUX 1080p Latino

    2008
    Corazón de tinta (2008) REMUX 1080p Latino

    1h 46m 2008

    Descargar Corazón de tinta (2008) REMUX 1080p Latino. Mortimer “Mo” Folchart y su hija de 12 años,...

    Director: Sharon Mansfield

    Género: Aventura

    Actores: Tereza Srbová

  • Juego de espías (2001) 1080p Latino

    Juego de espías (2001) 1080p Latino

    2001
    Juego de espías (2001) 1080p Latino

    2h 6m 2001

    Descargar Juego de espías (2001) 1080p Latino. Corre el año 1991, y al veterano agente de la CIA Nathan...

    Director: Tony Scott

    Género: Acción

    Actores: Zsolt Zágoni

  • Juego de espías (2001) Full HD 1080p Latino

    Juego de espías (2001) Full HD 1080p Latino

    2001
    Juego de espías (2001) Full HD 1080p Latino

    2h 6m 2001

    Descargar Juego de espías (2001) Full HD 1080p Latino. Corre el año 1991, y al veterano agente de la...

    Director: Tony Scott

    Género: Acción

    Actores: Zsolt Zágoni

  • Juego de espías (2001) REMUX 1080p Latino

    Juego de espías (2001) REMUX 1080p Latino

    2001
    Juego de espías (2001) REMUX 1080p Latino

    1h 55m 2001

    Descargar Juego de espías (2001) REMUX 1080p Latino. El día de su jubilación, el veterano agente de...

    Director: Tony Scott

    Género: Acción

    Actores: Zsolt Zágoni

descargar The Crow (1994) REMUX 1080p Latino – CMHDD Full 1080p 1080p gratis, The Crow (1994) REMUX 1080p Latino – CMHDD Full 1080p mega 1 link, The Crow (1994) REMUX 1080p Latino – CMHDD Full 1080p pelicula completa, descargar The Crow (1994) REMUX 1080p Latino – CMHDD Full 1080p gratis en mega.

The Crow (1994) REMUX 1080p Latino – CMHDD pelicula full hd, The Crow (1994) REMUX 1080p Latino – CMHDD mega latino, The Crow (1994) REMUX 1080p Latino – CMHDD 4k latino, The Crow (1994) REMUX 1080p Latino – CMHDD pelicula completa, The Crow (1994) REMUX 1080p Latino – CMHDD descargar gratis, descargar The Crow (1994) REMUX 1080p Latino – CMHDD pelicula latino, The Crow (1994) REMUX 1080p Latino – CMHDD 1 link mega, The Crow (1994) REMUX 1080p Latino – CMHDD 1 link google drive, The Crow (1994) REMUX 1080p Latino – CMHDD hd 1080p latino.
Comentarios 0