×

¿Problemas para descargar con Mozilla, EDGE? Deshabilita la opción "Abrir vinculos en una pestaña nueva" tal como lo muestra ésta imagen.

The Crossword Mysteries: A Puzzle to Die For (2019) AMZN WEB-DL 1080p Latino

954 vistas

Información de The Crossword Mysteries: A Puzzle to Die For (2019) AMZN WEB-DL 1080p Latino

Datos de la película

  • Calidad: WEBDL
  • Audio: Español Latino AC3 2.0 DVD - Ingles AC3 5.1 AMAZON
  • Subtitulos: Español Latino SRT- FORZADOS SRT
  • Resolución: 1920x1080
  • Formato: MKV
  • Codec: H.264
  • Encoder: cinemaniahdd
  • Mediainfo: Clic para Mostrar Datos Ver
  • The Crossword Mysteries, A Puzzle to Die For (2019) AMZN WEB-DL 1080p Latino.mkv
    Format                      : Matroska
    Format version              : Version 4
    File size                   : 5.97 GiB
    Duration                    : 1 h 24 min
    Overall bit rate            : 10.1 Mb/s
    Movie name                  : The Crossword Mysteries, A Puzzle to Die For (2019) - CinemaniaHDD.Net
    Encoded date                : UTC 2020-01-03 23:03:56
    Writing application         : mkvmerge v38.0.0 ('The Silent Type') 64-bit
    Writing library             : libebml v1.3.9 + libmatroska v1.5.2

    Video
    ID                          : 1
    Format                      : AVC
    Format/Info                 : Advanced Video Codec
    Format profile              : High@L4
    Format settings             : CABAC / 4 Ref Frames
    Format settings, CABAC      : Yes
    Format settings, ReFrames   : 4 frames
    Codec ID                    : V_MPEG4/ISO/AVC
    Duration                    : 1 h 24 min
    Bit rate mode               : Constant
    Bit rate                    : 9 227 kb/s
    Nominal bit rate            : 10 000 kb/s
    Width                       : 1 920 pixels
    Height                      : 1 080 pixels
    Display aspect ratio        : 16:9
    Frame rate mode             : Constant
    Frame rate                  : 23.976 (24000/1001) FPS
    Color space                 : YUV
    Chroma subsampling          : 4:2:0
    Bit depth                   : 8 bits
    Scan type                   : Progressive
    Bits/(Pixel*Frame)          : 0.186
    Stream size                 : 5.44 GiB (91%)
    Title                       : CinemaniaHDD
    Language                    : English
    Default                     : Yes
    Forced                      : No
    Color range                 : Limited
    Color primaries             : BT.709
    Transfer characteristics    : BT.709
    Matrix coefficients         : BT.709

    Audio #1
    ID                          : 2
    Format                      : AC-3
    Format/Info                 : Audio Coding 3
    Commercial name             : Dolby Digital
    Codec ID                    : A_AC3
    Duration                    : 1 h 24 min
    Bit rate mode               : Constant
    Bit rate                    : 256 kb/s
    Channel(s)                  : 2 channels
    Channel layout              : L R
    Sampling rate               : 48.0 kHz
    Frame rate                  : 31.250 FPS (1536 SPF)
    Bit depth                   : 16 bits
    Compression mode            : Lossy
    Stream size                 : 155 MiB (3%)
    Title                       : Español latino [CinemaniaHDD]
    Language                    : Spanish
    Service kind                : Complete Main
    Default                     : Yes
    Forced                      : No

    Audio #2
    ID                          : 3
    Format                      : E-AC-3
    Format/Info                 : Enhanced AC-3
    Commercial name             : Dolby Digital Plus
    Codec ID                    : A_EAC3
    Duration                    : 1 h 24 min
    Bit rate mode               : Constant
    Bit rate                    : 640 kb/s
    Channel(s)                  : 6 channels
    Channel layout              : L R C LFE Ls Rs
    Sampling rate               : 48.0 kHz
    Frame rate                  : 31.250 FPS (1536 SPF)
    Compression mode            : Lossy
    Stream size                 : 387 MiB (6%)
    Title                       : Inglés [CinemaniaHDD]
    Language                    : English
    Service kind                : Complete Main
    Default                     : No
    Forced                      : No

    Text #1
    ID                          : 4
    Format                      : UTF-8
    Codec ID                    : S_TEXT/UTF8
    Codec ID/Info               : UTF-8 Plain Text
    Duration                    : 1 h 9 min
    Bit rate                    : 0 b/s
    Count of elements           : 7
    Stream size                 : 175 Bytes (0%)
    Title                       : Forzados [CinemaniaHDD]
    Language                    : Spanish
    Default                     : Yes
    Forced                      : Yes

    Text #2
    ID                          : 5
    Format                      : UTF-8
    Codec ID                    : S_TEXT/UTF8
    Codec ID/Info               : UTF-8 Plain Text
    Duration                    : 1 h 21 min
    Bit rate                    : 85 b/s
    Count of elements           : 1455
    Stream size                 : 51.1 KiB (0%)
    Title                       : Español latino [CinemaniaHDD]
    Language                    : Spanish
    Default                     : No
    Forced                      : No

    Text #3
    ID                          : 6
    Format                      : UTF-8
    Codec ID                    : S_TEXT/UTF8
    Codec ID/Info               : UTF-8 Plain Text
    Duration                    : 1 h 23 min
    Bit rate                    : 103 b/s
    Count of elements           : 1707
    Stream size                 : 63.8 KiB (0%)
    Title                       : Inglés [CinemaniaHDD]
    Language                    : English
    Default                     : No
    Forced                      : No

     

  • Peso: 5.97 GiB

Sinopsis

Se encuentra un crucigrama sobre el propietario asesinado de una galería de arte robada. Tess, un editor de crucigramas de Sentinel, encuentra pistas en los crucigramas. Finalmente, el detective Logan acepta sus pistas y ayuda. Tess también está organizando un torneo de crucigramas.

Ficha técnica

Video trailer de la película

Enlaces de descarga

Rip de Bluray

Descargar The Crossword Mysteries: A Puzzle to Die For (2019) AMZN WEB-DL 1080p Latino




Aportes de DPeliculasHDmega la pass es:dpeliculashdmega.org Aportes de CinemaniaHD la pass es:cinemaniahdd.com Aportes recientes:cinemaniahdd.net

Películas relacionadas

descargar The Crossword Mysteries: A Puzzle to Die For (2019) AMZN WEB-DL 1080p Latino WEBDL 1080p gratis, The Crossword Mysteries: A Puzzle to Die For (2019) AMZN WEB-DL 1080p Latino WEBDL mega 1 link, The Crossword Mysteries: A Puzzle to Die For (2019) AMZN WEB-DL 1080p Latino WEBDL pelicula completa, descargar The Crossword Mysteries: A Puzzle to Die For (2019) AMZN WEB-DL 1080p Latino WEBDL gratis en mega.

The Crossword Mysteries: A Puzzle to Die For (2019) AMZN WEB-DL 1080p Latino pelicula full hd, The Crossword Mysteries: A Puzzle to Die For (2019) AMZN WEB-DL 1080p Latino mega latino, The Crossword Mysteries: A Puzzle to Die For (2019) AMZN WEB-DL 1080p Latino 4k latino, The Crossword Mysteries: A Puzzle to Die For (2019) AMZN WEB-DL 1080p Latino pelicula completa, The Crossword Mysteries: A Puzzle to Die For (2019) AMZN WEB-DL 1080p Latino descargar gratis, descargar The Crossword Mysteries: A Puzzle to Die For (2019) AMZN WEB-DL 1080p Latino pelicula latino, The Crossword Mysteries: A Puzzle to Die For (2019) AMZN WEB-DL 1080p Latino 1 link mega, The Crossword Mysteries: A Puzzle to Die For (2019) AMZN WEB-DL 1080p Latino 1 link google drive, The Crossword Mysteries: A Puzzle to Die For (2019) AMZN WEB-DL 1080p Latino hd 1080p latino.
Comentarios 0