×

¿Problemas para descargar con Mozilla, EDGE? Deshabilita la opción "Abrir vinculos en una pestaña nueva" tal como lo muestra ésta imagen.

The Crossroads of Hunter Wilde (2019) Web-DL 1080p Latino

1.482 vistas

Información de The Crossroads of Hunter Wilde (2019) Web-DL 1080p Latino

Datos de la película

  • Calidad: WEBDL
  • Audio: Español Latino AC3 2.0 iTunes - Ingles AC3 2.0 iTunes
  • Subtitulos: Español Latino SRT- FORZADOS SRT
  • Resolución: 1920x814p
  • Formato: MKV
  • Codec: H.264
  • Encoder: CinemaniaHD
  • Mediainfo: Clic para Mostrar Datos Ver
  • The Crossroads of Hunter Wilde (2019) Web-DL 1080p Latino.mkv
    Format                      : Matroska
    Format version              : Version 4
    File size                   : 3.25 GiB
    Duration                    : 1 h 27 min
    Overall bit rate            : 5 350 kb/s
    Movie name                  : CinemaniaHDD.Net
    Encoded date                : UTC 2020-04-10 12:01:21
    Writing application         : mkvmerge v42.0.0 ('Overtime') 64-bit
    Writing library             : libebml v1.3.10 + libmatroska v1.5.2
    Attachments                 : CINEMANIAHD.png

    Video
    ID                          : 1
    Format                      : AVC
    Format/Info                 : Advanced Video Codec
    Format profile              : High@L4
    Format settings             : CABAC / 5 Ref Frames
    Format settings, CABAC      : Yes
    Format settings, ReFrames   : 5 frames
    Codec ID                    : V_MPEG4/ISO/AVC
    Duration                    : 1 h 27 min
    Bit rate                    : 4 451 kb/s
    Width                       : 1 920 pixels
    Height                      : 814 pixels
    Display aspect ratio        : 2.35:1
    Frame rate mode             : Constant
    Frame rate                  : 23.976 FPS
    Color space                 : YUV
    Chroma subsampling          : 4:2:0
    Bit depth                   : 8 bits
    Scan type                   : Progressive
    Bits/(Pixel*Frame)          : 0.119
    Stream size                 : 2.71 GiB (83%)
    Title                       : Web HD1080p [CinemaniaHDD]
    Default                     : Yes
    Forced                      : Yes
    Color range                 : Limited
    Color primaries             : BT.709
    Transfer characteristics    : BT.709
    Matrix coefficients         : BT.709

    Audio #1
    ID                          : 2
    Format                      : AC-3
    Format/Info                 : Audio Coding 3
    Commercial name             : Dolby Digital
    Codec ID                    : A_AC3
    Duration                    : 1 h 27 min
    Bit rate mode               : Constant
    Bit rate                    : 256 kb/s
    Channel(s)                  : 2 channels
    Channel layout              : L R
    Sampling rate               : 48.0 kHz
    Frame rate                  : 31.250 FPS (1536 SPF)
    Bit depth                   : 16 bits
    Compression mode            : Lossy
    Delay relative to video     : -42 ms
    Stream size                 : 159 MiB (5%)
    Title                       : Español Latino [CinemaniaHDD]
    Language                    : Spanish
    Service kind                : Complete Main
    Default                     : Yes
    Forced                      : Yes

    Audio #2
    ID                          : 3
    Format                      : AC-3
    Format/Info                 : Audio Coding 3
    Commercial name             : Dolby Digital
    Codec ID                    : A_AC3
    Duration                    : 1 h 27 min
    Bit rate mode               : Constant
    Bit rate                    : 640 kb/s
    Channel(s)                  : 2 channels
    Channel layout              : L R
    Sampling rate               : 48.0 kHz
    Frame rate                  : 31.250 FPS (1536 SPF)
    Bit depth                   : 16 bits
    Compression mode            : Lossy
    Delay relative to video     : -42 ms
    Stream size                 : 398 MiB (12%)
    Title                       : Ingles [CinemaniaHDD]
    Language                    : English
    Service kind                : Complete Main
    Default                     : No
    Forced                      : No

    Text #1
    ID                          : 4
    Format                      : UTF-8
    Codec ID                    : S_TEXT/UTF8
    Codec ID/Info               : UTF-8 Plain Text
    Duration                    : 1 h 23 min
    Bit rate                    : 0 b/s
    Count of elements           : 4
    Stream size                 : 128 Bytes (0%)
    Title                       : Forzados-SRT [CinemaniaHDD]
    Language                    : Spanish
    Default                     : Yes
    Forced                      : Yes

    Text #2
    ID                          : 5
    Format                      : UTF-8
    Codec ID                    : S_TEXT/UTF8
    Codec ID/Info               : UTF-8 Plain Text
    Duration                    : 1 h 24 min
    Bit rate                    : 52 b/s
    Count of elements           : 993
    Stream size                 : 32.5 KiB (0%)
    Title                       : Español-SRT [CinemaniaHDD]
    Language                    : Spanish
    Default                     : No
    Forced                      : No

    Menu
    00:00:00.000                : en:1
    00:09:40.204                : en:2
    00:21:09.893                : en:3
    00:31:39.521                : en:4
    00:42:52.610                : en:5
    00:55:27.030                : en:6
    01:05:16.118                : en:7
    01:16:53.815                : en:8
    01:24:55.086                : en:9

  • Peso: 3.25 GiB

Sinopsis

Descargar The Crossroads of Hunter Wilde (2019) Web-DL 1080p Latino. Hunter Wilde es el líder de un grupo de sobrevivientes cristianos que intentan vivir lo más normal posible dos años después de un ataque con un Pulso Electromagnetico. En un mundo de caos, vivir día a día se ha vuelto cada vez más dificl. Pero todo cambia cuando las puertas del infierno se abren y los demonios se encargan de buscar y destruir a los creyentes restantes en la tierra. Su objetivo es Hunter ya que si pueden quebrantarlo, toda la ciudad de Crossroads lo seguirá.

Ficha técnica

Video trailer de la película

Enlaces de descarga

Rip de Bluray

Descargar The Crossroads of Hunter Wilde (2019) Web-DL 1080p Latino




Aportes de DPeliculasHDmega la pass es:dpeliculashdmega.org Aportes de CinemaniaHD la pass es:cinemaniahdd.com
Guardado en : Ciencia ficción , Familia , Suspenso

Películas relacionadas

descargar The Crossroads of Hunter Wilde (2019) Web-DL 1080p Latino WEBDL 1080p gratis, The Crossroads of Hunter Wilde (2019) Web-DL 1080p Latino WEBDL mega 1 link, The Crossroads of Hunter Wilde (2019) Web-DL 1080p Latino WEBDL pelicula completa, descargar The Crossroads of Hunter Wilde (2019) Web-DL 1080p Latino WEBDL gratis en mega.

The Crossroads of Hunter Wilde (2019) Web-DL 1080p Latino pelicula full hd, The Crossroads of Hunter Wilde (2019) Web-DL 1080p Latino mega latino, The Crossroads of Hunter Wilde (2019) Web-DL 1080p Latino 4k latino, The Crossroads of Hunter Wilde (2019) Web-DL 1080p Latino pelicula completa, The Crossroads of Hunter Wilde (2019) Web-DL 1080p Latino descargar gratis, descargar The Crossroads of Hunter Wilde (2019) Web-DL 1080p Latino pelicula latino, The Crossroads of Hunter Wilde (2019) Web-DL 1080p Latino 1 link mega, The Crossroads of Hunter Wilde (2019) Web-DL 1080p Latino 1 link google drive, The Crossroads of Hunter Wilde (2019) Web-DL 1080p Latino hd 1080p latino.
Comentarios 0