Los Croods (2013) REMUX 1080p Latino

135 vistas
1 estrella2 estrellas3 estrellas4 estrellas5 estrellas (Ninguna valoración todavía)
Cargando...

Información de Los Croods (2013) REMUX 1080p Latino

Datos de la película

  • Calidad: Full 1080p
  • Audio: Se especifica abajo de la Sinopsis
  • Subtitulos: Español Latino PGS - Ingles PGS
  • Resolución: 1920x1080p
  • Formato: MKV
  • Codec: H.264
  • Encoder: CinefiloCool
  • Mediainfo: Clic para Mostrar Datos Ver
  • Los Croods (2013) REMUX 1080p Latino-CMHDD.mkv
    Format                      : Matroska
    Format version              : Version 4
    File size                   : 22.6 GiB
    Duration                    : 1 h 38 min
    Overall bit rate mode       : Variable
    Overall bit rate            : 32.8 Mb/s
    Movie name                  : The Croods (2013) CinemaniaHDD.Net
    Encoded date                : UTC 2020-12-17 22:29:20
    Writing application         : mkvmerge v51.0.0 ('I Wish') 64-bit
    Writing library             : libebml v1.4.0 + libmatroska v1.6.2
    Attachments                 : CINEMANIAHD.png

    Video
    ID                          : 1
    ID in the original source m : 4113 (0x1011)
    Format                      : AVC
    Format/Info                 : Advanced Video Codec
    Format profile              : High@L4.1
    Format settings             : CABAC / 4 Ref Frames
    Format settings, CABAC      : Yes
    Format settings, Reference  : 4 frames
    Codec ID                    : V_MPEG4/ISO/AVC
    Duration                    : 1 h 38 min
    Bit rate mode               : Variable
    Bit rate                    : 23.8 Mb/s
    Maximum bit rate            : 30.5 Mb/s
    Width                       : 1 920 pixels
    Height                      : 1 080 pixels
    Display aspect ratio        : 16:9
    Frame rate mode             : Constant
    Frame rate                  : 23.976 (24000/1001) FPS
    Color space                 : YUV
    Chroma subsampling          : 4:2:0
    Bit depth                   : 8 bits
    Scan type                   : Progressive
    Bits/(Pixel*Frame)          : 0.479
    Stream size                 : 16.4 GiB (73%)
    Title                       : REMUX HD1080p [CinemaniaHDD]
    Default                     : Yes
    Forced                      : Yes
    Original source medium      : Blu-ray

    Audio #1
    ID                          : 2
    Format                      : DTS XBR
    Format/Info                 : Digital Theater Systems
    Commercial name             : DTS-HD High Resolution Audio
    Codec ID                    : A_DTS
    Duration                    : 1 h 38 min
    Bit rate mode               : Constant
    Bit rate                    : 2 046 kb/s
    Channel(s)                  : 8 channels
    Channel layout              : C L R LFE Lb Rb Lss Rss
    Sampling rate               : 48.0 kHz
    Frame rate                  : 93.750 FPS (512 SPF)
    Bit depth                   : 24 bits
    Compression mode            : Lossy
    Delay relative to video     : 5 ms
    Stream size                 : 1.41 GiB (6%)
    Title                       : Español Latino DTS-HD [CinemaniaHDD]
    Language                    : Spanish
    Default                     : Yes
    Forced                      : Yes

    Audio #2
    ID                          : 3
    ID in the original source m : 4352 (0x1100)
    Format                      : DTS XLL
    Format/Info                 : Digital Theater Systems
    Commercial name             : DTS-HD Master Audio
    Codec ID                    : A_DTS
    Duration                    : 1 h 38 min
    Bit rate mode               : Variable
    Bit rate                    : 4 931 kb/s
    Channel(s)                  : 8 channels
    Channel layout              : C L R LFE Lb Rb Lss Rss
    Sampling rate               : 48.0 kHz
    Frame rate                  : 93.750 FPS (512 SPF)
    Bit depth                   : 24 bits
    Compression mode            : Lossless
    Stream size                 : 3.40 GiB (15%)
    Title                       : Ingles [CinemaniaHDD]
    Language                    : English
    Default                     : No
    Forced                      : No
    Original source medium      : Blu-ray

    Audio #3
    ID                          : 4
    Format                      : DTS
    Format/Info                 : Digital Theater Systems
    Codec ID                    : A_DTS
    Duration                    : 1 h 38 min
    Bit rate mode               : Constant
    Bit rate                    : 1 509 kb/s
    Channel(s)                  : 6 channels
    Channel layout              : C L R Ls Rs LFE
    Sampling rate               : 48.0 kHz
    Frame rate                  : 93.750 FPS (512 SPF)
    Bit depth                   : 24 bits
    Compression mode            : Lossy
    Delay relative to video     : 5 ms
    Stream size                 : 1.04 GiB (5%)
    Title                       : Español Latino Core DTS [CinemaniaHDD]
    Language                    : Spanish
    Default                     : No
    Forced                      : No

    Audio #4
    ID                          : 5
    ID in the original source m : 4353 (0x1101)
    Format                      : AC-3
    Format/Info                 : Audio Coding 3
    Commercial name             : Dolby Digital
    Codec ID                    : A_AC3
    Duration                    : 1 h 38 min
    Bit rate mode               : Constant
    Bit rate                    : 448 kb/s
    Channel(s)                  : 6 channels
    Channel layout              : L R C LFE Ls Rs
    Sampling rate               : 48.0 kHz
    Frame rate                  : 31.250 FPS (1536 SPF)
    Compression mode            : Lossy
    Stream size                 : 316 MiB (1%)
    Title                       : Español Latino AC3 [CinemaniaHDD]
    Language                    : Spanish
    Service kind                : Complete Main
    Default                     : No
    Forced                      : No
    Original source medium      : Blu-ray

    Text #1
    ID                          : 6
    ID in the original source m : 4609 (0x1201)
    Format                      : PGS
    Muxing mode                 : zlib
    Codec ID                    : S_HDMV/PGS
    Codec ID/Info               : Picture based subtitle format used on BDs/HD-DVDs
    Duration                    : 1 h 37 min
    Bit rate                    : 23.2 kb/s
    Count of elements           : 1928
    Stream size                 : 16.1 MiB (0%)
    Title                       : Español-PGS [CinemaniaHDD]
    Language                    : Spanish
    Default                     : No
    Forced                      : No
    Original source medium      : Blu-ray

    Text #2
    ID                          : 7
    ID in the original source m : 4608 (0x1200)
    Format                      : PGS
    Muxing mode                 : zlib
    Codec ID                    : S_HDMV/PGS
    Codec ID/Info               : Picture based subtitle format used on BDs/HD-DVDs
    Duration                    : 1 h 28 min
    Bit rate                    : 25.1 kb/s
    Count of elements           : 2042
    Stream size                 : 15.9 MiB (0%)
    Title                       : Ingles-PGS [CinemaniaHDD]
    Language                    : English
    Default                     : No
    Forced                      : No
    Original source medium      : Blu-ray

    Text #3
    ID                          : 8
    Format                      : UTF-8
    Codec ID                    : S_TEXT/UTF8
    Codec ID/Info               : UTF-8 Plain Text
    Duration                    : 1 h 25 min
    Bit rate                    : 0 b/s
    Count of elements           : 2
    Stream size                 : 27.0 Bytes (0%)
    Title                       : Forzados-SRT [CinemaniaHDD]
    Language                    : Spanish
    Default                     : Yes
    Forced                      : Yes

    Text #4
    ID                          : 9
    Format                      : UTF-8
    Codec ID                    : S_TEXT/UTF8
    Codec ID/Info               : UTF-8 Plain Text
    Duration                    : 1 h 28 min
    Bit rate                    : 40 b/s
    Count of elements           : 964
    Stream size                 : 26.6 KiB (0%)
    Title                       : Español-SRT [CinemaniaHDD]
    Language                    : Spanish
    Default                     : No
    Forced                      : No

    Menu
    00:00:00.000                : en:Chapter 01
    00:02:34.988                : en:Chapter 02
    00:04:51.749                : en:Chapter 03
    00:09:01.249                : en:Chapter 04
    00:12:21.115                : en:Chapter 05
    00:14:04.802                : en:Chapter 06
    00:18:33.028                : en:Chapter 07
    00:21:56.982                : en:Chapter 08
    00:23:24.736                : en:Chapter 09
    00:26:49.774                : en:Chapter 10
    00:28:37.132                : en:Chapter 11
    00:30:25.657                : en:Chapter 12
    00:32:48.633                : en:Chapter 13
    00:36:03.369                : en:Chapter 14
    00:38:33.561                : en:Chapter 15
    00:41:34.533                : en:Chapter 16
    00:44:38.842                : en:Chapter 17
    00:48:02.629                : en:Chapter 18
    00:52:10.961                : en:Chapter 19
    00:55:17.480                : en:Chapter 20
    01:00:14.777                : en:Chapter 21
    01:03:58.084                : en:Chapter 22
    01:05:48.736                : en:Chapter 23
    01:08:44.036                : en:Chapter 24
    01:10:47.284                : en:Chapter 25
    01:12:37.144                : en:Chapter 26
    01:14:01.645                : en:Chapter 27
    01:19:48.575                : en:Chapter 28
    01:23:09.859                : en:Chapter 29
    01:25:16.736                : en:Chapter 30
    01:28:04.320                : en:Chapter 31
    01:30:02.230                : en:Chapter 32

  • Peso: 22.6 GiB

Sinopsis

Descargar Los Croods (2013) REMUX 1080p Latino. La película está ambientada en la prehistoria, donde Crug lidera a su familia más allá de la comodidad de su hogar después de que este sea destruido por un gran terremoto. Mientras intentan viajar por el desconocido y aterrador mundo, se encuentran con un nómada que cautiva a su clan, en especial a su hermana mayor, con su mente moderna.

Audio Español Latino DTS-HD 7.1 + Core DTS 5.1 Bluray 4K + AC3 5.1 BD50 – Ingles DTS-HD 7.1 Bluray

Nota:
El Bluray 4K es distribuido por Universal y El Doblaje tiene acento y modismos de México

Ficha técnica

Video trailer de la película

Enlaces de descarga

Rip de Bluray

Descargar Los Croods (2013) REMUX 1080p Latino




Aportes de DPeliculasHDmega la pass es:dpeliculashdmega.org Aportes de CinemaniaHD la pass es:cinemaniahdd.com

Películas relacionadas

  • Rick and Morty (2021) Temporada 5 AS WEB-DL 1080p Latino

    Rick and Morty (2021) Temporada 5 AS WEB-DL 1080p Latino

    2013
    Rick and Morty (2021) Temporada 5 AS WEB-DL 1080p Latino

    5.0 0h 22m 2013

    Comedia animada que narra las aventuras de un científico loco Rick Sánchez, que regresa después de...

    Director: Justin Roiland

    Género: Action & Adventure

    Actores: Spencer Grammer

  • Howard the Duck (1986) REMUX 1080p Latino – CMHDD

    Howard the Duck (1986) REMUX 1080p Latino – CMHDD

    1986
    Howard the Duck (1986) REMUX 1080p Latino – CMHDD

    0.0 1h 51m 1986

    Desde un lejano planeta, y debido a un error de un laboratorio espacial, llega a La Tierra teletransportado...

    Director: Willard Huyck

    Género: Ciencia ficción

    Actores: Wood Moy

  • Space Jam (1996) REMUX 1080p Latino – CMHDD

    Space Jam (1996) REMUX 1080p Latino – CMHDD

    1996
    Space Jam (1996) REMUX 1080p Latino – CMHDD

    0.0 1h 27m 1996

    Bugs Bunny y su equipo desafían a los Nerdlucks (un grupo de pequeños extraterrestres) a un partido...

    Director: Pamela Cederquist

    Género: Animación

    Actores: William G. Schilling

Los Croods (2013) REMUX 1080p Latino pelicula full hd, Los Croods (2013) REMUX 1080p Latino mega latino, Los Croods (2013) REMUX 1080p Latino 4k latino, Los Croods (2013) REMUX 1080p Latino pelicula completa, Los Croods (2013) REMUX 1080p Latino descargar gratis, descargar Los Croods (2013) REMUX 1080p Latino pelicula latino, Los Croods (2013) REMUX 1080p Latino 1 link mega, Los Croods (2013) REMUX 1080p Latino 1 link google drive, Los Croods (2013) REMUX 1080p Latino hd 1080p latino.
Comentarios 0