Los Croods (2013) Full HD 1080p Latino

55 vistas
1 estrella2 estrellas3 estrellas4 estrellas5 estrellas (Ninguna valoración todavía)
Cargando...

Información de Los Croods (2013) Full HD 1080p Latino

Datos de la película

  • Calidad: Full 1080p
  • Audio: Se especifica abajo de la Sinopsis
  • Subtitulos: Español Latino PGS - Ingles PGS
  • Resolución: 1920x1080p
  • Formato: MKV
  • Codec: H.264
  • Encoder: CinefiloCool
  • Mediainfo: Clic para Mostrar Datos Ver
  • Los Croods (2013) Full HD 1080p Latino-CMHDD.mkv
    Format                      : Matroska
    Format version              : Version 4
    File size                   : 7.12 GiB
    Duration                    : 1 h 38 min
    Overall bit rate            : 10.3 Mb/s
    Movie name                  : The Croods (2013) CinemaniaHDD.Net
    Encoded date                : UTC 2020-12-17 23:58:05
    Writing application         : mkvmerge v51.0.0 ('I Wish') 64-bit
    Writing library             : libebml v1.4.0 + libmatroska v1.6.2
    Attachments                 : CINEMANIAHD.png

    Video
    ID                          : 1
    Format                      : AVC
    Format/Info                 : Advanced Video Codec
    Format profile              : High@L4.1
    Format settings             : CABAC / 4 Ref Frames
    Format settings, CABAC      : Yes
    Format settings, Reference  : 4 frames
    Codec ID                    : V_MPEG4/ISO/AVC
    Duration                    : 1 h 38 min
    Bit rate                    : 6 859 kb/s
    Width                       : 1 920 pixels
    Height                      : 1 080 pixels
    Display aspect ratio        : 16:9
    Frame rate mode             : Constant
    Frame rate                  : 23.976 (24000/1001) FPS
    Color space                 : YUV
    Chroma subsampling          : 4:2:0
    Bit depth                   : 8 bits
    Scan type                   : Progressive
    Bits/(Pixel*Frame)          : 0.138
    Stream size                 : 4.72 GiB (66%)
    Title                       : Full HD1080p [CinemaniaHDD]
    Writing library             : x264 core 157 r2935 545de2f
    Encoding settings           : cabac=1 / ref=4 / deblock=1:0:0 / analyse=0x3:0x133 / me=tesa / subme=11 / psy=1 / psy_rd=1.00:0.00 / mixed_ref=1 / me_range=24 / chroma_me=1 / trellis=2 / 8x8dct=1 / cqm=0 / deadzone=21,11 / fast_pskip=0 / chroma_qp_offset=-2 / threads=24 / lookahead_threads=6 / sliced_threads=0 / nr=0 / decimate=1 / interlaced=0 / bluray_compat=0 / constrained_intra=0 / bframes=16 / b_pyramid=2 / b_adapt=2 / b_bias=0 / direct=3 / weightb=1 / open_gop=0 / weightp=2 / keyint=240 / keyint_min=24 / scenecut=40 / intra_refresh=0 / rc_lookahead=60 / rc=crf / mbtree=1 / crf=18.0 / qcomp=0.60 / qpmin=0 / qpmax=69 / qpstep=4 / vbv_maxrate=62500 / vbv_bufsize=78125 / crf_max=0.0 / nal_hrd=none / filler=0 / ip_ratio=1.40 / aq=1:1.00
    Default                     : Yes
    Forced                      : Yes
    Color range                 : Limited
    Color primaries             : BT.709
    Transfer characteristics    : BT.709
    Matrix coefficients         : BT.709

    Audio #1
    ID                          : 2
    Format                      : DTS
    Format/Info                 : Digital Theater Systems
    Codec ID                    : A_DTS
    Duration                    : 1 h 38 min
    Bit rate mode               : Constant
    Bit rate                    : 1 509 kb/s
    Channel(s)                  : 6 channels
    Channel layout              : C L R Ls Rs LFE
    Sampling rate               : 48.0 kHz
    Frame rate                  : 93.750 FPS (512 SPF)
    Bit depth                   : 24 bits
    Compression mode            : Lossy
    Delay relative to video     : 5 ms
    Stream size                 : 1.04 GiB (15%)
    Title                       : Español Latino DTS [CinemaniaHDD]
    Language                    : Spanish
    Default                     : Yes
    Forced                      : Yes

    Audio #2
    ID                          : 3
    Format                      : DTS
    Format/Info                 : Digital Theater Systems
    Codec ID                    : A_DTS
    Duration                    : 1 h 38 min
    Bit rate mode               : Constant
    Bit rate                    : 1 509 kb/s
    Channel(s)                  : 6 channels
    Channel layout              : C L R Ls Rs LFE
    Sampling rate               : 48.0 kHz
    Frame rate                  : 93.750 FPS (512 SPF)
    Bit depth                   : 24 bits
    Compression mode            : Lossy
    Stream size                 : 1.04 GiB (15%)
    Title                       : Ingles [CinemaniaHDD]
    Language                    : English
    Default                     : No
    Forced                      : No

    Audio #3
    ID                          : 4
    ID in the original source m : 4353 (0x1101)
    Format                      : AC-3
    Format/Info                 : Audio Coding 3
    Commercial name             : Dolby Digital
    Codec ID                    : A_AC3
    Duration                    : 1 h 38 min
    Bit rate mode               : Constant
    Bit rate                    : 448 kb/s
    Channel(s)                  : 6 channels
    Channel layout              : L R C LFE Ls Rs
    Sampling rate               : 48.0 kHz
    Frame rate                  : 31.250 FPS (1536 SPF)
    Compression mode            : Lossy
    Stream size                 : 316 MiB (4%)
    Title                       : Español Latino AC3 [CinemaniaHDD]
    Language                    : Spanish
    Service kind                : Complete Main
    Default                     : No
    Forced                      : No
    Original source medium      : Blu-ray

    Text #1
    ID                          : 5
    ID in the original source m : 4609 (0x1201)
    Format                      : PGS
    Muxing mode                 : zlib
    Codec ID                    : S_HDMV/PGS
    Codec ID/Info               : Picture based subtitle format used on BDs/HD-DVDs
    Duration                    : 1 h 37 min
    Bit rate                    : 23.2 kb/s
    Count of elements           : 1928
    Stream size                 : 16.1 MiB (0%)
    Title                       : Español-PGS [CinemaniaHDD]
    Language                    : Spanish
    Default                     : No
    Forced                      : No
    Original source medium      : Blu-ray

    Text #2
    ID                          : 6
    ID in the original source m : 4608 (0x1200)
    Format                      : PGS
    Muxing mode                 : zlib
    Codec ID                    : S_HDMV/PGS
    Codec ID/Info               : Picture based subtitle format used on BDs/HD-DVDs
    Duration                    : 1 h 28 min
    Bit rate                    : 25.1 kb/s
    Count of elements           : 2042
    Stream size                 : 15.9 MiB (0%)
    Title                       : Ingles-PGS [CinemaniaHDD]
    Language                    : English
    Default                     : No
    Forced                      : No
    Original source medium      : Blu-ray

    Text #3
    ID                          : 7
    Format                      : UTF-8
    Codec ID                    : S_TEXT/UTF8
    Codec ID/Info               : UTF-8 Plain Text
    Duration                    : 1 h 25 min
    Bit rate                    : 0 b/s
    Count of elements           : 2
    Stream size                 : 27.0 Bytes (0%)
    Title                       : Forzados-SRT [CinemaniaHDD]
    Language                    : Spanish
    Default                     : Yes
    Forced                      : Yes

    Text #4
    ID                          : 8
    Format                      : UTF-8
    Codec ID                    : S_TEXT/UTF8
    Codec ID/Info               : UTF-8 Plain Text
    Duration                    : 1 h 28 min
    Bit rate                    : 40 b/s
    Count of elements           : 964
    Stream size                 : 26.6 KiB (0%)
    Title                       : Español-SRT [CinemaniaHDD]
    Language                    : Spanish
    Default                     : No
    Forced                      : No

    Menu
    00:00:00.000                : en:Chapter 01
    00:02:34.988                : en:Chapter 02
    00:04:51.749                : en:Chapter 03
    00:09:01.249                : en:Chapter 04
    00:12:21.115                : en:Chapter 05
    00:14:04.802                : en:Chapter 06
    00:18:33.028                : en:Chapter 07
    00:21:56.982                : en:Chapter 08
    00:23:24.736                : en:Chapter 09
    00:26:49.774                : en:Chapter 10
    00:28:37.132                : en:Chapter 11
    00:30:25.657                : en:Chapter 12
    00:32:48.633                : en:Chapter 13
    00:36:03.369                : en:Chapter 14
    00:38:33.561                : en:Chapter 15
    00:41:34.533                : en:Chapter 16
    00:44:38.842                : en:Chapter 17
    00:48:02.629                : en:Chapter 18
    00:52:10.961                : en:Chapter 19
    00:55:17.480                : en:Chapter 20
    01:00:14.777                : en:Chapter 21
    01:03:58.084                : en:Chapter 22
    01:05:48.736                : en:Chapter 23
    01:08:44.036                : en:Chapter 24
    01:10:47.284                : en:Chapter 25
    01:12:37.144                : en:Chapter 26
    01:14:01.645                : en:Chapter 27
    01:19:48.575                : en:Chapter 28
    01:23:09.859                : en:Chapter 29
    01:25:16.736                : en:Chapter 30
    01:28:04.320                : en:Chapter 31
    01:30:02.230                : en:Chapter 32

  • Peso: 7.12 GiB

Sinopsis

Descargar Los Croods (2013) Full HD 1080p Latino. La película está ambientada en la prehistoria, donde Crug lidera a su familia más allá de la comodidad de su hogar después de que este sea destruido por un gran terremoto. Mientras intentan viajar por el desconocido y aterrador mundo, se encuentran con un nómada que cautiva a su clan, en especial a su hermana mayor, con su mente moderna.

Audio Español Latino DTS 5.1 Bluray 4K + AC3 5.1 BD50 – Ingles DTS 5.1 Bluray

Nota:
El Bluray 4K es distribuido por Universal y El Doblaje tiene acento y modismos de México

Ficha técnica

Video trailer de la película

Enlaces de descarga

Rip de Bluray

Descargar Los Croods (2013) Full HD 1080p Latino




Aportes de DPeliculasHDmega la pass es:dpeliculashdmega.org Aportes de CinemaniaHD la pass es:cinemaniahdd.com

Películas relacionadas

  • 2012 (2009) REMUX 1080p Latino – CMHDD

    2012 (2009) REMUX 1080p Latino – CMHDD

    2009
    2012 (2009) REMUX 1080p Latino – CMHDD

    0.0 2h 38m 2009

    El geólogo Adrian Helmsley, descubre de que el núcleo de la Tierra se está calentando. Teme que la...

    Director: Tommy Gormley

    Género: Acción

    Actores: Zlatko Burić

  • 2012 (2009) REMUX 4K HDR Latino – CMHDD

    2012 (2009) REMUX 4K HDR Latino – CMHDD

    2009
    2012 (2009) REMUX 4K HDR Latino – CMHDD

    0.0 2h 38m 2009

    El geólogo Adrian Helmsley, descubre de que el núcleo de la Tierra se está calentando. Teme que la...

    Director: Tommy Gormley

    Género: Acción

    Actores: Zlatko Burić

  • El día del fin del mundo (2020) HD 1080p Latino

    El día del fin del mundo (2020) HD 1080p Latino

    2020
    El día del fin del mundo (2020) HD 1080p Latino

    0.0 1h 59m 2020

    Descargar El día del fin del mundo (2020) HD 1080p Latino. Un matrimonio a punto de separarse debe tratar...

    Director: Ric Roman Waugh

    Género: Acción

    Actores: Tracey Bonner

  • El día del fin del mundo (2020) REMUX 1080p Latino

    El día del fin del mundo (2020) REMUX 1080p Latino

    2020
    El día del fin del mundo (2020) REMUX 1080p Latino

    5.0 1h 59m 2020

    Descargar El día del fin del mundo (2020) REMUX 1080p Latino. Un matrimonio a punto de separarse debe...

    Director: Ric Roman Waugh

    Género: Acción

    Actores: Tracey Bonner

Comentarios 0