×

¿Problemas para descargar con Mozilla, EDGE? Deshabilita la opción "Abrir vinculos en una pestaña nueva" tal como lo muestra ésta imagen.

El conde de Montecristo (2002) REMUX 1080p Latino

535 vistas

Información de El conde de Montecristo (2002) REMUX 1080p Latino

Datos de la película

  • Calidad: Full 1080p
  • Audio: Español Latino AC3 2.0 BLURAY - Ingles DTS 5.1 BLURAY
  • Subtitulos: Español Latino PGS - Ingles PGS
  • Resolución: 1920x1080p
  • Formato: MKV
  • Codec: H.264
  • Encoder: CinefiloCool
  • Mediainfo: Clic para Mostrar Datos Ver
  • El Conde De Montecristo (2002) REMUX 1080p Latino-CMHDD.mkv
    Format                      : Matroska
    Format version              : Version 4
    File size                   : 25.9 GiB
    Duration                    : 2 h 11 min
    Overall bit rate mode       : Variable
    Overall bit rate            : 28.2 Mb/s
    Movie name                  : The Count of Monte Cristo (2002) CinemaniaHDD.Net
    Encoded date                : UTC 2021-11-30 21:42:43
    Writing application         : mkvmerge v56.1.0 ('My Friend') 64-bit
    Writing library             : libebml v1.4.2 + libmatroska v1.6.4
    Attachments                 : CINEMANIAHD.png

    Video
    ID                          : 1
    Format                      : VC-1
    Format profile              : Advanced@L3
    Codec ID                    : V_MS/VFW/FOURCC / WVC1
    Codec ID/Hint               : Microsoft
    Duration                    : 2 h 11 min
    Bit rate                    : 23.2 Mb/s
    Width                       : 1 920 pixels
    Height                      : 1 080 pixels
    Display aspect ratio        : 16:9
    Frame rate mode             : Constant
    Frame rate                  : 23.976 (24000/1001) FPS
    Color space                 : YUV
    Chroma subsampling          : 4:2:0
    Bit depth                   : 8 bits
    Scan type                   : Progressive
    Compression mode            : Lossy
    Bits/(Pixel*Frame)          : 0.466
    Stream size                 : 21.2 GiB (82%)
    Title                       : REMUX HD1080p [CinemaniaHDD]
    Default                     : Yes
    Forced                      : Yes

    Audio #1
    ID                          : 2
    Format                      : AC-3
    Format/Info                 : Audio Coding 3
    Commercial name             : Dolby Digital
    Codec ID                    : A_AC3
    Duration                    : 2 h 11 min
    Bit rate mode               : Constant
    Bit rate                    : 320 kb/s
    Channel(s)                  : 2 channels
    Channel layout              : L R
    Sampling rate               : 48.0 kHz
    Frame rate                  : 31.250 FPS (1536 SPF)
    Compression mode            : Lossy
    Stream size                 : 301 MiB (1%)
    Title                       : Español Latino [CinemaniaHDD]
    Language                    : Spanish
    Service kind                : Complete Main
    Default                     : Yes
    Forced                      : Yes

    Audio #2
    ID                          : 3
    Format                      : DTS XLL
    Format/Info                 : Digital Theater Systems
    Commercial name             : DTS-HD Master Audio
    Codec ID                    : A_DTS
    Duration                    : 2 h 11 min
    Bit rate mode               : Variable
    Bit rate                    : 4 694 kb/s
    Channel(s)                  : 6 channels
    Channel layout              : C L R Ls Rs LFE
    Sampling rate               : 48.0 kHz
    Frame rate                  : 93.750 FPS (512 SPF)
    Bit depth                   : 24 bits
    Compression mode            : Lossless
    Stream size                 : 4.31 GiB (17%)
    Title                       : Ingles [CinemaniaHDD]
    Language                    : English
    Default                     : No
    Forced                      : No

    Text #1
    ID                          : 4
    Format                      : PGS
    Muxing mode                 : zlib
    Codec ID                    : S_HDMV/PGS
    Codec ID/Info               : Picture based subtitle format used on BDs/HD-DVDs
    Duration                    : 2 h 6 min
    Bit rate                    : 502 b/s
    Count of elements           : 50
    Stream size                 : 465 KiB (0%)
    Title                       : Forzados-PGS [CinemaniaHDD]
    Language                    : Spanish
    Default                     : No
    Forced                      : No

    Text #2
    ID                          : 5
    Format                      : PGS
    Muxing mode                 : zlib
    Codec ID                    : S_HDMV/PGS
    Codec ID/Info               : Picture based subtitle format used on BDs/HD-DVDs
    Duration                    : 2 h 6 min
    Bit rate                    : 25.9 kb/s
    Count of elements           : 2700
    Stream size                 : 23.4 MiB (0%)
    Title                       : Español-PGS [CinemaniaHDD]
    Language                    : Spanish
    Default                     : No
    Forced                      : No

    Text #3
    ID                          : 6
    Format                      : PGS
    Muxing mode                 : zlib
    Codec ID                    : S_HDMV/PGS
    Codec ID/Info               : Picture based subtitle format used on BDs/HD-DVDs
    Duration                    : 2 h 5 min
    Bit rate                    : 29.7 kb/s
    Count of elements           : 2914
    Stream size                 : 26.6 MiB (0%)
    Title                       : Ingles-PGS [CinemaniaHDD]
    Language                    : English
    Default                     : No
    Forced                      : No

    Text #4
    ID                          : 7
    Format                      : UTF-8
    Codec ID                    : S_TEXT/UTF8
    Codec ID/Info               : UTF-8 Plain Text
    Duration                    : 2 h 6 min
    Bit rate                    : 0 b/s
    Count of elements           : 27
    Stream size                 : 863 Bytes (0%)
    Title                       : Forzados-SRT [CinemaniaHDD]
    Language                    : Spanish
    Default                     : Yes
    Forced                      : Yes

    Text #5
    ID                          : 8
    Format                      : UTF-8
    Codec ID                    : S_TEXT/UTF8
    Codec ID/Info               : UTF-8 Plain Text
    Duration                    : 2 h 6 min
    Bit rate                    : 49 b/s
    Count of elements           : 1373
    Stream size                 : 45.8 KiB (0%)
    Title                       : Español-SRT [CinemaniaHDD]
    Language                    : Spanish
    Default                     : No
    Forced                      : No

    Menu
    00:00:00.000                : Chapter 01
    00:06:15.124                : Chapter 02
    00:09:04.252                : Chapter 03
    00:13:55.626                : Chapter 04
    00:16:10.260                : Chapter 05
    00:21:20.654                : Chapter 06
    00:26:52.444                : Chapter 07
    00:30:35.124                : Chapter 08
    00:33:14.492                : Chapter 09
    00:36:23.764                : Chapter 10
    00:42:04.605                : Chapter 11
    00:46:05.345                : Chapter 12
    00:50:56.303                : Chapter 13
    00:56:43.399                : Chapter 14
    01:00:47.226                : Chapter 15
    01:05:06.611                : Chapter 16
    01:10:53.707                : Chapter 17
    01:15:16.512                : Chapter 18
    01:19:23.967                : Chapter 19
    01:23:14.823                : Chapter 20
    01:28:01.276                : Chapter 21
    01:34:09.727                : Chapter 22
    01:38:24.607                : Chapter 23
    01:41:44.807                : Chapter 24
    01:43:56.980                : Chapter 25
    01:49:40.282                : Chapter 26
    01:56:08.962                : Chapter 27
    02:02:01.814                : Chapter 28
    02:05:48.791                : Chapter 29
    02:11:13.532                : Chapter 30

  • Peso: 25.9 GiB

Sinopsis

Descargar El conde de Montecristo (2002) REMUX 1080p Latino. El honrado e inocente Edmond Dantes (Jim Caviezel) es traicionado por su mejor amigo (Guy Pearce) y encerrado de por vida en las mazmorras de la fortaleza de la isla de If. Con el paso de los años va cambiando y elabora los más despiadados planes de venganza. Tras una milagrosa fuga, Edmond se convierte en el misterioso y acaudalado Conde de Montecristo, y se introduce en los círculos de la nobleza francesa para llevar a cabo sus proyectos.

Disponible Solo Para VIP!!! 

Ficha técnica

  • Titulo original: The Count of Monte Cristo
  • Fecha de lanzamiento: 23-01-2002 (United States of America)
  • Director: Kevin Reynolds
  • Género: Aventura, Drama, Remux

Video trailer de la película

Enlaces de descarga

Rip de Bluray

Descargar El conde de Montecristo (2002) REMUX 1080p Latino


Aportes de DPeliculasHDmega la pass es:dpeliculashdmega.org Aportes de CinemaniaHD la pass es:cinemaniahdd.com
Guardado en : Aventura , Drama , Remux

Películas relacionadas

descargar El conde de Montecristo (2002) REMUX 1080p Latino Full 1080p 1080p gratis, El conde de Montecristo (2002) REMUX 1080p Latino Full 1080p mega 1 link, El conde de Montecristo (2002) REMUX 1080p Latino Full 1080p pelicula completa, descargar El conde de Montecristo (2002) REMUX 1080p Latino Full 1080p gratis en mega.

El conde de Montecristo (2002) REMUX 1080p Latino pelicula full hd, El conde de Montecristo (2002) REMUX 1080p Latino mega latino, El conde de Montecristo (2002) REMUX 1080p Latino 4k latino, El conde de Montecristo (2002) REMUX 1080p Latino pelicula completa, El conde de Montecristo (2002) REMUX 1080p Latino descargar gratis, descargar El conde de Montecristo (2002) REMUX 1080p Latino pelicula latino, El conde de Montecristo (2002) REMUX 1080p Latino 1 link mega, El conde de Montecristo (2002) REMUX 1080p Latino 1 link google drive, El conde de Montecristo (2002) REMUX 1080p Latino hd 1080p latino.
Comentarios 0