×

¿Problemas para descargar con Mozilla, EDGE? Deshabilita la opción "Abrir vinculos en una pestaña nueva" tal como lo muestra ésta imagen.

The Core (2003) REMUX 4K HDR Latino – CMHDD

58 vistas

Información de The Core (2003) REMUX 4K HDR Latino – CMHDD

Datos de la película

  • Calidad:
  • Audio: Español Latino AC3 5.1 BLURAY - Ingles DTS 5.1 BLURAY
  • Subtitulos: Español Latino SRT- FORZADOS SRT
  • Resolución: 3840x2160p
  • Formato: MKV
  • Codec: H.264
  • Encoder: Dracarys
  • Mediainfo: Clic para Mostrar Datos Ver
  • Format                      : Matroska
    Format version              : Version 4
    File size                   : 52.0 GiB
    Duration                    : 2 h 14 min
    Overall bit rate mode       : Variable
    Overall bit rate            : 55.2 Mb/s
    Movie name                  : The Core (2003) REMUX 4K HDR Latino - CMHDD
    Encoded date                : UTC 2024-03-08 00:49:41
    Writing application         : mkvmerge v47.0.0 ('Black Flag') 64-bit
    Writing library             : libebml v1.3.10 + libmatroska v1.5.2

    Video
    ID                          : 1
    ID in the original source m : 4113 (0x1011)
    Format                      : HEVC
    Format/Info                 : High Efficiency Video Coding
    Format profile              : Main 10@L5.1@High
    HDR format                  : SMPTE ST 2086, HDR10 compatible
    Codec ID                    : V_MPEGH/ISO/HEVC
    Duration                    : 2 h 14 min
    Bit rate                    : 51.1 Mb/s
    Width                       : 3 840 pixels
    Height                      : 2 160 pixels
    Display aspect ratio        : 16:9
    Frame rate mode             : Constant
    Frame rate                  : 23.976 (24000/1001) FPS
    Color space                 : YUV
    Chroma subsampling          : 4:2:0 (Type 2)
    Bit depth                   : 10 bits
    Bits/(Pixel*Frame)          : 0.257
    Stream size                 : 48.2 GiB (93%)
    Language                    : English
    Default                     : Yes
    Forced                      : No
    Color range                 : Limited
    Color primaries             : BT.2020
    Transfer characteristics    : PQ
    Matrix coefficients         : BT.2020 non-constant
    Mastering display color pri : Display P3
    Mastering display luminance : min: 0.0001 cd/m2, max: 1000 cd/m2
    Original source medium      : Blu-ray

    Audio #1
    ID                          : 2
    Format                      : AC-3
    Format/Info                 : Audio Coding 3
    Commercial name             : Dolby Digital
    Codec ID                    : A_AC3
    Duration                    : 2 h 14 min
    Bit rate mode               : Constant
    Bit rate                    : 640 kb/s
    Channel(s)                  : 6 channels
    Channel layout              : L R C LFE Ls Rs
    Sampling rate               : 48.0 kHz
    Frame rate                  : 31.250 FPS (1536 SPF)
    Compression mode            : Lossy
    Delay relative to video     : 27 ms
    Stream size                 : 618 MiB (1%)
    Language                    : Spanish
    Service kind                : Complete Main
    Default                     : Yes
    Forced                      : No

    Audio #2
    ID                          : 3
    Format                      : AC-3
    Format/Info                 : Audio Coding 3
    Commercial name             : Dolby Digital
    Codec ID                    : A_AC3
    Duration                    : 2 h 14 min
    Bit rate mode               : Constant
    Bit rate                    : 640 kb/s
    Channel(s)                  : 6 channels
    Channel layout              : L R C LFE Ls Rs
    Sampling rate               : 48.0 kHz
    Frame rate                  : 31.250 FPS (1536 SPF)
    Compression mode            : Lossy
    Stream size                 : 618 MiB (1%)
    Language                    : English
    Service kind                : Complete Main
    Default                     : No
    Forced                      : No

    Audio #3
    ID                          : 4
    Format                      : DTS XLL
    Format/Info                 : Digital Theater Systems
    Commercial name             : DTS-HD Master Audio
    Codec ID                    : A_DTS
    Duration                    : 2 h 14 min
    Bit rate mode               : Variable
    Bit rate                    : 2 806 kb/s
    Channel(s)                  : 6 channels
    Channel layout              : C L R Ls Rs LFE
    Sampling rate               : 48.0 kHz
    Frame rate                  : 93.750 FPS (512 SPF)
    Bit depth                   : 24 bits
    Compression mode            : Lossless
    Stream size                 : 2.65 GiB (5%)
    Language                    : English
    Default                     : No
    Forced                      : No

    Text #1
    ID                          : 5
    Format                      : UTF-8
    Codec ID                    : S_TEXT/UTF8
    Codec ID/Info               : UTF-8 Plain Text
    Duration                    : 2 h 5 min
    Bit rate                    : 1 b/s
    Frame rate                  : 0.007 FPS
    Count of elements           : 50
    Stream size                 : 1.33 KiB (0%)
    Title                       : Latino Forzado
    Language                    : Spanish
    Default                     : Yes
    Forced                      : No

    Text #2
    ID                          : 6
    Format                      : UTF-8
    Codec ID                    : S_TEXT/UTF8
    Codec ID/Info               : UTF-8 Plain Text
    Duration                    : 2 h 5 min
    Bit rate                    : 61 b/s
    Frame rate                  : 0.205 FPS
    Count of elements           : 1545
    Stream size                 : 56.5 KiB (0%)
    Title                       : Latino
    Language                    : Spanish
    Default                     : No
    Forced                      : No

    Text #3
    ID                          : 7
    Format                      : PGS
    Muxing mode                 : zlib
    Codec ID                    : S_HDMV/PGS
    Codec ID/Info               : Picture based subtitle format used on BDs/HD-DVDs
    Duration                    : 2 h 5 min
    Bit rate                    : 2 165 b/s
    Frame rate                  : 0.013 FPS
    Count of elements           : 100
    Stream size                 : 1.94 MiB (0%)
    Title                       : Latino Forzado
    Language                    : Spanish
    Default                     : No
    Forced                      : No

    Text #4
    ID                          : 8
    Format                      : PGS
    Muxing mode                 : zlib
    Codec ID                    : S_HDMV/PGS
    Codec ID/Info               : Picture based subtitle format used on BDs/HD-DVDs
    Duration                    : 2 h 5 min
    Bit rate                    : 77.3 kb/s
    Frame rate                  : 0.410 FPS
    Count of elements           : 3090
    Stream size                 : 69.3 MiB (0%)
    Title                       : Latino
    Language                    : Spanish
    Default                     : No
    Forced                      : No

    Menu
    00:00:00.000                : en:Unexplained Deaths
    00:07:12.807                : en:Frenzied Birds
    00:11:09.001                : en:Endeavour Landing
    00:18:15.260                : en:Government Secrets
    00:27:57.342                : en:Unobtainium
    00:32:53.972                : en:Help From the Rat
    00:35:58.489                : en:The Crew
    00:40:12.993                : en:Preparing for the Mission
    00:47:26.760                : en:Superstorm
    00:50:08.463                : en:Virgil Is Launched
    01:01:19.592                : en:Giant Gem Bubble
    01:11:50.055                : en:Serge
    01:22:25.899                : en:Project Destiny
    01:29:28.196                : en:Em Tear
    01:33:43.034                : en:Plan D
    01:39:00.643                : en:Worth Dying For
    01:44:38.355                : en:Stones in the Pond
    01:52:21.109                : en:Healing the Earth
    01:58:07.246                : en:Saved By Whales
    02:03:58.013                : en:Unsung Heroes

     

  • Peso: 52.0 GiB

Sinopsis

Los científicos descubren que el núcleo del planeta Tierra ha detenido su movimiento giratorio, lo que causará catástrofes a nivel mundial, eliminando la vida tal y como la conocemos. Un grupo de científicos son reclutados para una peligrosa misión al centro de la tierra que pueda prevenir el fin de la vida.

Ficha técnica

Video trailer de la película

Enlaces de descarga

Rip de Bluray

Descargar The Core (2003) REMUX 4K HDR Latino – CMHDD




Aportes de DPeliculasHDmega la pass es:dpeliculashdmega.org Aportes de CinemaniaHD la pass es:cinemaniahdd.com Aportes recientes:cinemaniahdd.net

Películas relacionadas

descargar The Core (2003) REMUX 4K HDR Latino – CMHDD 1080p gratis, The Core (2003) REMUX 4K HDR Latino – CMHDD mega 1 link, The Core (2003) REMUX 4K HDR Latino – CMHDD pelicula completa, descargar The Core (2003) REMUX 4K HDR Latino – CMHDD gratis en mega.

The Core (2003) REMUX 4K HDR Latino – CMHDD pelicula full hd, The Core (2003) REMUX 4K HDR Latino – CMHDD mega latino, The Core (2003) REMUX 4K HDR Latino – CMHDD 4k latino, The Core (2003) REMUX 4K HDR Latino – CMHDD pelicula completa, The Core (2003) REMUX 4K HDR Latino – CMHDD descargar gratis, descargar The Core (2003) REMUX 4K HDR Latino – CMHDD pelicula latino, The Core (2003) REMUX 4K HDR Latino – CMHDD 1 link mega, The Core (2003) REMUX 4K HDR Latino – CMHDD 1 link google drive, The Core (2003) REMUX 4K HDR Latino – CMHDD hd 1080p latino.
Comentarios 0