×

¿Problemas para descargar con Mozilla, EDGE? Deshabilita la opción "Abrir vinculos en una pestaña nueva" tal como lo muestra ésta imagen.

The Continental (2023) Primera Temporada PCOK WEB-DL 1080p Latino

216 vistas

Información de The Continental (2023) Primera Temporada PCOK WEB-DL 1080p Latino

Datos de la película

  • Calidad: 1080p
  • Audio: Español Latino AC3 5.1 WEB-DL - Ingles AC3 5.1 WEB-DL
  • Subtitulos: Español Latino SRT- FORZADOS SRT
  • Resolución: 1920x1080
  • Formato: MKV
  • Codec: H.264
  • Encoder: cinemaniahdd
  • Mediainfo: Clic para Mostrar Datos Ver
  • The Continental T01E01 PCOCK WEB-DL 1080p Latino [CNMNHDD].mkv
    Format                      : Matroska
    Format version              : Version 4
    File size                   : 5.54 GiB
    Duration                    : 1 h 26 min
    Overall bit rate            : 9 178 kb/s
    Movie name                  : The Continental S01E01 - Brothers in Arms [1080p] - CinemaniaHDD.Net
    Encoded date                : UTC 2023-09-22 18:38:48
    Writing application         : mkvmerge v56.1.0 ('My Friend') 64-bit
    Writing library             : libebml v1.4.2 + libmatroska v1.6.4

    Video
    ID                          : 1
    Format                      : AVC
    Format/Info                 : Advanced Video Codec
    Format profile              : High@L4
    Format settings             : CABAC / 3 Ref Frames
    Format settings, CABAC      : Yes
    Format settings, Reference  : 3 frames
    Codec ID                    : V_MPEG4/ISO/AVC
    Duration                    : 1 h 26 min
    Bit rate                    : 7 814 kb/s
    Width                       : 1 920 pixels
    Height                      : 1 080 pixels
    Display aspect ratio        : 16:9
    Frame rate mode             : Constant
    Frame rate                  : 23.976 (24000/1001) FPS
    Color space                 : YUV
    Chroma subsampling          : 4:2:0
    Bit depth                   : 8 bits
    Scan type                   : Progressive
    Bits/(Pixel*Frame)          : 0.157
    Stream size                 : 4.71 GiB (85%)
    Title                       : CinemaniaHDD
    Writing library             : x264 core 164 r3095 baee400
    Encoding settings           : cabac=1 / ref=3 / deblock=1:0:0 / analyse=0x3:0x113 / me=umh / subme=7 / psy=1 / psy_rd=0.00:0.00 / mixed_ref=1 / me_range=16 / chroma_me=1 / trellis=1 / 8x8dct=1 / cqm=0 / deadzone=21,11 / fast_pskip=1 / chroma_qp_offset=0 / threads=34 / lookahead_threads=5 / sliced_threads=0 / nr=0 / decimate=1 / interlaced=0 / bluray_compat=0 / stitchable=1 / constrained_intra=0 / bframes=2 / b_pyramid=0 / b_adapt=1 / b_bias=0 / direct=1 / weightb=1 / open_gop=0 / weightp=2 / keyint=48 / keyint_min=4 / scenecut=0 / intra_refresh=0 / rc_lookahead=48 / rc=2pass / mbtree=1 / bitrate=7814 / ratetol=1.0 / qcomp=0.60 / qpmin=10 / qpmax=51 / qpstep=4 / cplxblur=20.0 / qblur=0.5 / vbv_maxrate=11729 / vbv_bufsize=11729 / nal_hrd=none / filler=0 / ip_ratio=1.41 / aq=1:1.00
    Default                     : Yes
    Forced                      : No
    Color range                 : Limited
    Color primaries             : BT.709
    Transfer characteristics    : BT.709
    Matrix coefficients         : BT.709

    Audio #1
    ID                          : 2
    Format                      : AAC LC
    Format/Info                 : Advanced Audio Codec Low Complexity
    Codec ID                    : A_AAC-2
    Duration                    : 1 h 26 min
    Bit rate                    : 96.0 kb/s
    Channel(s)                  : 2 channels
    Channel layout              : L R
    Sampling rate               : 48.0 kHz
    Frame rate                  : 46.875 FPS (1024 SPF)
    Compression mode            : Lossy
    Stream size                 : 59.5 MiB (1%)
    Title                       : Español Latino [CinemaniaHDD]
    Language                    : Spanish
    Default                     : Yes
    Forced                      : No

    Audio #2
    ID                          : 3
    Format                      : E-AC-3
    Format/Info                 : Enhanced AC-3
    Commercial name             : Dolby Digital Plus
    Codec ID                    : A_EAC3
    Duration                    : 1 h 26 min
    Bit rate mode               : Constant
    Bit rate                    : 640 kb/s
    Channel(s)                  : 6 channels
    Channel layout              : L R C LFE Ls Rs
    Sampling rate               : 48.0 kHz
    Frame rate                  : 31.250 FPS (1536 SPF)
    Compression mode            : Lossy
    Stream size                 : 396 MiB (7%)
    Title                       : Español latino / E-AC3 [CinemaniaHDD]
    Language                    : Spanish
    Service kind                : Complete Main
    Default                     : No
    Forced                      : No

    Audio #3
    ID                          : 4
    Format                      : E-AC-3
    Format/Info                 : Enhanced AC-3
    Commercial name             : Dolby Digital Plus
    Codec ID                    : A_EAC3
    Duration                    : 1 h 26 min
    Bit rate mode               : Constant
    Bit rate                    : 640 kb/s
    Channel(s)                  : 6 channels
    Channel layout              : L R C LFE Ls Rs
    Sampling rate               : 48.0 kHz
    Frame rate                  : 31.250 FPS (1536 SPF)
    Compression mode            : Lossy
    Stream size                 : 396 MiB (7%)
    Title                       : Inglés [CinemaniaHDD]
    Language                    : English
    Service kind                : Complete Main
    Default                     : No
    Forced                      : No

    Text #1
    ID                          : 5
    Format                      : UTF-8
    Codec ID                    : S_TEXT/UTF8
    Codec ID/Info               : UTF-8 Plain Text
    Duration                    : 1 h 22 min
    Bit rate                    : 2 b/s
    Count of elements           : 53
    Stream size                 : 1.23 KiB (0%)
    Title                       : Forzados [CinemaniaHDD]
    Language                    : Spanish
    Default                     : Yes
    Forced                      : Yes

    Text #2
    ID                          : 6
    Format                      : UTF-8
    Codec ID                    : S_TEXT/UTF8
    Codec ID/Info               : UTF-8 Plain Text
    Duration                    : 1 h 25 min
    Bit rate                    : 45 b/s
    Count of elements           : 928
    Stream size                 : 28.4 KiB (0%)
    Title                       : Español Latino [CinemaniaHDD]
    Language                    : Spanish
    Default                     : No
    Forced                      : No

    Text #3
    ID                          : 7
    Format                      : UTF-8
    Codec ID                    : S_TEXT/UTF8
    Codec ID/Info               : UTF-8 Plain Text
    Duration                    : 1 h 25 min
    Bit rate                    : 64 b/s
    Count of elements           : 1425
    Stream size                 : 40.3 KiB (0%)
    Title                       : Inglés [CinemaniaHDD]
    Language                    : English
    Default                     : No
    Forced                      : No

    Menu
    00:00:04.042                : 1. Peacock Original
    00:00:11.042                : Scene 2
    00:01:25.042                : Scene 3
    00:02:30.042                : Scene 4
    00:04:21.042                : Scene 5
    00:06:49.042                : Scene 6
    00:11:02.042                : 7. Opening Credits
    00:12:02.042                : 8. Title Sequence
    00:12:13.042                : Scene 9
    00:16:42.042                : Scene 10
    00:20:58.042                : Scene 11
    00:24:04.042                : Scene 12
    00:29:19.042                : Scene 13
    00:31:56.042                : Scene 14
    00:36:23.042                : Scene 15
    00:37:31.042                : Scene 16
    00:40:58.042                : Scene 17
    00:42:22.042                : Scene 18
    00:45:13.042                : Scene 19
    00:49:16.042                : Scene 20
    00:52:47.042                : Scene 21
    00:55:19.042                : Scene 22
    00:59:19.042                : Scene 23
    01:03:25.042                : Scene 24
    01:06:10.042                : Scene 25
    01:07:34.042                : Scene 26
    01:09:27.042                : Scene 27
    01:10:36.042                : Scene 28
    01:14:52.042                : Scene 29
    01:16:05.042                : Scene 30
    01:20:14.042                : Scene 31
    01:25:01.042                : Scene 32
    01:25:13.042                : 33. End Credits

     

  • Peso: 5.54 GiB Aprox ---- 17 GiB in 3 Chapters.

Sinopsis

«El Continental» es una serie de eventos que revela los violentos orígenes del icónico hotel para asesinos en el mundo de John Wick. Ambientada en Nueva York durante los años 70, Winston Scott recluta a un equipo para enfrentarse a una conspiración provocada por el ataque de su hermano a El Continental. El sangriento drama de acción explora el encuentro del amor familiar, el destino y la venganza.

Ficha técnica

Video trailer de la película

Enlaces de descarga

Rip de Bluray

Descargar The Continental (2023) Primera Temporada PCOK WEB-DL 1080p Latino




Aportes de DPeliculasHDmega la pass es:dpeliculashdmega.org Aportes de CinemaniaHD la pass es:cinemaniahdd.com Aportes recientes:cinemaniahdd.net
Guardado en : Action & Adventure , Crimen , Series

Películas relacionadas

  • iZombie (2016) Temporada 02 Full HD 1080p Latino

    iZombie (2016) Temporada 02 Full HD 1080p Latino

    2015
    iZombie (2016) Temporada 02 Full HD 1080p Latino

    0h 42m 2015

    Descargar iZombie (2016) Temporada 02 Full HD 1080p Latino. Gira en torno a una estudiante de medicina...

    Director: Rob Thomas

    Género: Crimen

    Actores: Rose McIver

  • iZombie (2016) Temporada 02 REMUX 1080p Latino

    iZombie (2016) Temporada 02 REMUX 1080p Latino

    2015
    iZombie (2016) Temporada 02 REMUX 1080p Latino

    0h 42m 2015

    Descargar iZombie (2016) Temporada 02 REMUX 1080p Latino. Gira en torno a una estudiante de medicina...

    Director: Rob Thomas

    Género: Crimen

    Actores: Rose McIver

  • iZombie (2015) Temporada 01 Full HD 1080p Latino

    iZombie (2015) Temporada 01 Full HD 1080p Latino

    2015
    iZombie (2015) Temporada 01 Full HD 1080p Latino

    0h 42m 2015

    Descargar iZombie (2015) Temporada 01 Full HD 1080p Latino. Gira en torno a una estudiante de medicina...

    Director: Rob Thomas

    Género: Crimen

    Actores: Rose McIver

  • iZombie (2015) Temporada 01 REMUX 1080p Latino

    iZombie (2015) Temporada 01 REMUX 1080p Latino

    2015
    iZombie (2015) Temporada 01 REMUX 1080p Latino

    0h 42m 2015

    Descargar iZombie (2015) Temporada 01 REMUX 1080p Latino. Gira en torno a una estudiante de medicina...

    Director: Rob Thomas

    Género: Crimen

    Actores: Rose McIver

descargar The Continental (2023) Primera Temporada PCOK WEB-DL 1080p Latino 1080p 1080p gratis, The Continental (2023) Primera Temporada PCOK WEB-DL 1080p Latino 1080p mega 1 link, The Continental (2023) Primera Temporada PCOK WEB-DL 1080p Latino 1080p serie completa, descargar The Continental (2023) Primera Temporada PCOK WEB-DL 1080p Latino 1080p gratis en mega.

The Continental (2023) Primera Temporada PCOK WEB-DL 1080p Latino pelicula full hd, The Continental (2023) Primera Temporada PCOK WEB-DL 1080p Latino mega latino, The Continental (2023) Primera Temporada PCOK WEB-DL 1080p Latino 4k latino, The Continental (2023) Primera Temporada PCOK WEB-DL 1080p Latino pelicula completa, The Continental (2023) Primera Temporada PCOK WEB-DL 1080p Latino descargar gratis, descargar The Continental (2023) Primera Temporada PCOK WEB-DL 1080p Latino pelicula latino, The Continental (2023) Primera Temporada PCOK WEB-DL 1080p Latino 1 link mega, The Continental (2023) Primera Temporada PCOK WEB-DL 1080p Latino 1 link google drive, The Continental (2023) Primera Temporada PCOK WEB-DL 1080p Latino hd 1080p latino.
Comentarios 0