El conjuro 2 (2016) REMUX 1080p Latino

14 vistas
1 estrella2 estrellas3 estrellas4 estrellas5 estrellas (1 votos, promedio: 5,00 de 5)
Cargando...

Información de El conjuro 2 (2016) REMUX 1080p Latino

Datos de la película

  • Calidad: Full 1080p
  • Audio: Se especifica abajo de la Sinopsis
  • Subtitulos: Español Latino PGS - Ingles PGS
  • Resolución: 1920x1080p
  • Formato: MKV
  • Codec: H.264
  • Encoder: CinefiloCool
  • Mediainfo: Clic para Mostrar Datos Ver
  • El Conjuro 2 (2016) REMUX 1080p Latino-CMHDD.mkv
    Format                      : Matroska
    Format version              : Version 4
    File size                   : 25.7 GiB
    Duration                    : 2 h 13 min
    Overall bit rate mode       : Variable
    Overall bit rate            : 27.4 Mb/s
    Movie name                  : The Conjuring 2 (2016) CinemaniaHDD.Net
    Encoded date                : UTC 2021-06-07 05:36:05
    Writing application         : mkvmerge v56.1.0 ('My Friend') 64-bit
    Writing library             : libebml v1.4.2 + libmatroska v1.6.4
    Attachments                 : CINEMANIAHD.png

    Video
    ID                          : 1
    Format                      : AVC
    Format/Info                 : Advanced Video Codec
    Format profile              : High@L4.1
    Format settings             : CABAC / 2 Ref Frames
    Format settings, CABAC      : Yes
    Format settings, Reference  : 2 frames
    Codec ID                    : V_MPEG4/ISO/AVC
    Duration                    : 2 h 13 min
    Bit rate mode               : Variable
    Bit rate                    : 22.5 Mb/s
    Width                       : 1 920 pixels
    Height                      : 1 080 pixels
    Display aspect ratio        : 16:9
    Frame rate mode             : Constant
    Frame rate                  : 23.976 (24000/1001) FPS
    Color space                 : YUV
    Chroma subsampling          : 4:2:0
    Bit depth                   : 8 bits
    Scan type                   : Progressive
    Bits/(Pixel*Frame)          : 0.453
    Stream size                 : 21.1 GiB (82%)
    Title                       : REMUX HD1080p [CinemaniaHDD]
    Default                     : Yes
    Forced                      : No

    Audio #1
    ID                          : 2
    Format                      : AC-3
    Format/Info                 : Audio Coding 3
    Commercial name             : Dolby Digital
    Codec ID                    : A_AC3
    Duration                    : 2 h 13 min
    Bit rate mode               : Constant
    Bit rate                    : 448 kb/s
    Channel(s)                  : 6 channels
    Channel layout              : L R C LFE Ls Rs
    Sampling rate               : 48.0 kHz
    Frame rate                  : 31.250 FPS (1536 SPF)
    Compression mode            : Lossy
    Stream size                 : 429 MiB (2%)
    Title                       : Español Latino [CinemaniaHDD]
    Language                    : Spanish
    Service kind                : Complete Main
    Default                     : Yes
    Forced                      : No

    Audio #2
    ID                          : 3
    Format                      : MLP FBA 16-ch
    Format/Info                 : Meridian Lossless Packing FBA with 16-channel presentation
    Commercial name             : Dolby TrueHD with Dolby Atmos
    Codec ID                    : A_TRUEHD
    Duration                    : 2 h 13 min
    Bit rate mode               : Variable
    Bit rate                    : 3 987 kb/s
    Maximum bit rate            : 8 076 kb/s
    Channel(s)                  : 8 channels
    Channel layout              : L R C LFE Ls Rs Lb Rb
    Sampling rate               : 48.0 kHz
    Frame rate                  : 1 200.000 FPS (40 SPF)
    Compression mode            : Lossless
    Stream size                 : 3.73 GiB (15%)
    Title                       : Ingles THD [CinemaniaHDD]
    Language                    : English
    Default                     : No
    Forced                      : No
    Number of dynamic objects   : 11
    Bed channel count           : 1 channel
    Bed channel configuration   : LFE

    Audio #3
    ID                          : 4
    Format                      : AC-3
    Format/Info                 : Audio Coding 3
    Commercial name             : Dolby Digital
    Codec ID                    : A_AC3
    Duration                    : 2 h 13 min
    Bit rate mode               : Constant
    Bit rate                    : 384 kb/s
    Channel(s)                  : 6 channels
    Channel layout              : L R C LFE Ls Rs
    Sampling rate               : 48.0 kHz
    Frame rate                  : 31.250 FPS (1536 SPF)
    Compression mode            : Lossy
    Stream size                 : 368 MiB (1%)
    Title                       : Ingles AC3 [CinemaniaHDD]
    Language                    : English
    Service kind                : Complete Main
    Default                     : No
    Forced                      : No

    Text #1
    ID                          : 5
    Format                      : PGS
    Muxing mode                 : zlib
    Codec ID                    : S_HDMV/PGS
    Codec ID/Info               : Picture based subtitle format used on BDs/HD-DVDs
    Duration                    : 2 h 13 min
    Bit rate                    : 24.9 kb/s
    Count of elements           : 2816
    Stream size                 : 23.7 MiB (0%)
    Title                       : Español-PGS [CinemaniaHDD]
    Language                    : Spanish
    Default                     : No
    Forced                      : No

    Text #2
    ID                          : 6
    Format                      : PGS
    Muxing mode                 : zlib
    Codec ID                    : S_HDMV/PGS
    Codec ID/Info               : Picture based subtitle format used on BDs/HD-DVDs
    Duration                    : 2 h 13 min
    Bit rate                    : 31.7 kb/s
    Count of elements           : 3486
    Stream size                 : 30.2 MiB (0%)
    Title                       : Ingles-PGS [CinemaniaHDD]
    Language                    : English
    Default                     : No
    Forced                      : No

    Text #3
    ID                          : 7
    Format                      : UTF-8
    Codec ID                    : S_TEXT/UTF8
    Codec ID/Info               : UTF-8 Plain Text
    Duration                    : 2 h 7 min
    Bit rate                    : 1 b/s
    Count of elements           : 46
    Stream size                 : 1.67 KiB (0%)
    Title                       : Forzados-SRT [CinemaniaHDD]
    Language                    : Spanish
    Default                     : Yes
    Forced                      : No

    Text #4
    ID                          : 8
    Format                      : UTF-8
    Codec ID                    : S_TEXT/UTF8
    Codec ID/Info               : UTF-8 Plain Text
    Duration                    : 2 h 8 min
    Bit rate                    : 41 b/s
    Count of elements           : 1402
    Stream size                 : 38.7 KiB (0%)
    Title                       : Español-SRT [CinemaniaHDD]
    Language                    : Spanish
    Default                     : No
    Forced                      : No

    Menu
    00:00:00.000                : Chapter 1
    00:08:24.670                : Chapter 2
    00:18:40.702                : Chapter 3
    00:28:34.212                : Chapter 4
    00:40:01.399                : Chapter 5
    00:48:46.840                : Chapter 6
    01:02:14.313                : Chapter 7
    01:09:29.665                : Chapter 8
    01:21:55.869                : Chapter 9
    01:29:26.486                : Chapter 10
    01:38:53.469                : Chapter 11
    01:48:15.363                : Chapter 12
    02:03:10.508                : Chapter 13
    02:07:36.815                : Chapter 14

  • Peso: 25.7 GiB

Sinopsis

Descargar El conjuro 2 (2016) REMUX 1080p Latino. Secuela de la exitosa ‘Expediente Warren’ (2013), que lleva de nuevo a la pantalla otro caso real de los expedientes de los renombrados demonólogos Ed y Lorraine Warren. En este caso ambos viajarán al norte de Londres para ayudar a una madre soltera que tiene a su cargo cuatro hijos y que vive sola con ellos en una casa plagada de espíritus malignos.

Audio Español Latino AC3 5.1 Bluray – Ingles TrueHD 7.1 + AC3 5.1 Bluray

Ficha técnica

Video trailer de la película

Enlaces de descarga

Rip de Bluray

Descargar El conjuro 2 (2016) REMUX 1080p Latino




Aportes de DPeliculasHDmega la pass es:dpeliculashdmega.org Aportes de CinemaniaHD la pass es:cinemaniahdd.com
Guardado en : Misterio , Remux , Suspenso , Terror
Etiquetado en :

Películas relacionadas

  • Nadie (2021) REMUX 1080p Latino

    Nadie (2021) REMUX 1080p Latino

    2021
    Nadie (2021) REMUX 1080p Latino

    5.0 1h 32m 2021

    Descargar Nadie (2021) REMUX 1080p Latino. Hutch Mansell, un padre de familia que aguanta con resignación...

    Director: Ilya Naishuller

    Género: Acción

    Actores: Yulia Guzhva

  • Annabelle 3: Viene A Casa (2019) Full HD 1080p Latino

    Annabelle 3: Viene A Casa (2019) Full HD 1080p Latino

    2019
    Annabelle 3: Viene A Casa (2019) Full HD 1080p Latino

    5.0 1h 46m 2019

    Descargar Annabelle 3: Viene A Casa (2019) Full HD 1080p Latino. Annabelle Vuelve a Casa es la tercera...

    Director: Gary Dauberman

    Género: FULL 1080p Plateadas

    Actores: Vera Farmiga

  • Annabelle 3: Viene A Casa (2019) REMUX 1080p Latino

    Annabelle 3: Viene A Casa (2019) REMUX 1080p Latino

    2019
    Annabelle 3: Viene A Casa (2019) REMUX 1080p Latino

    5.0 1h 46m 2019

    Descargar Annabelle 3 Vuelve a casa (2019) REMUX 1080p Latino. Annabelle Vuelve a Casa es la tercera...

    Director: Gary Dauberman

    Género: Misterio

    Actores: Vera Farmiga

  • Annabelle 2: La Creación (2017) Full HD 1080p Latino

    Annabelle 2: La Creación (2017) Full HD 1080p Latino

    2017
    Annabelle 2: La Creación (2017) Full HD 1080p Latino

    4.7 1 h 49 min 2017

    Descargar Annabelle 2: La Creación (2017) Full HD 1080p Latino. Década de los 50. Algunos años después...

    Director: Jan McWilliams

    Género: FULL 1080p Plateadas

    Actores: Ward Horton

  • Annabelle 2: La Creación (2017) REMUX 1080p Latino

    Annabelle 2: La Creación (2017) REMUX 1080p Latino

    2017
    Annabelle 2: La Creación (2017) REMUX 1080p Latino

    3.0 1h 49m 2017

    Descargar Annabelle 2: La Creación (2017) REMUX 1080p Latino. Varios años después del trágico fallecimiento...

    Director: Jan McWilliams

    Género: Misterio

    Actores: Ward Horton

El conjuro 2 (2016) REMUX 1080p Latino pelicula full hd, El conjuro 2 (2016) REMUX 1080p Latino mega latino, El conjuro 2 (2016) REMUX 1080p Latino 4k latino, El conjuro 2 (2016) REMUX 1080p Latino pelicula completa, El conjuro 2 (2016) REMUX 1080p Latino descargar gratis, descargar El conjuro 2 (2016) REMUX 1080p Latino pelicula latino, El conjuro 2 (2016) REMUX 1080p Latino 1 link mega, El conjuro 2 (2016) REMUX 1080p Latino 1 link google drive, El conjuro 2 (2016) REMUX 1080p Latino hd 1080p latino.
Comentarios 0