×

¿Problemas para descargar con Mozilla, EDGE? Deshabilita la opción "Abrir vinculos en una pestaña nueva" tal como lo muestra ésta imagen.

The Cloverfield Paradox (2018) REMUX 1080p Latino – CMHDD

85 vistas

Información de The Cloverfield Paradox (2018) REMUX 1080p Latino – CMHDD

Datos de la película

  • Calidad: Full 1080p
  • Audio: Español Latino AC3 5.1 BLURAY - Ingles AC3 5.1 BLURAY
  • Subtitulos: Español Latino SRT- FORZADOS SRT
  • Resolución: 19201080p
  • Formato: MKV
  • Codec: H.264
  • Encoder: Dracarys
  • Mediainfo: Clic para Mostrar Datos Ver
  • Format                      : Matroska
    Format version              : Version 4
    File size                   : 22.4 GiB
    Duration                    : 1 h 41 min
    Overall bit rate mode       : Variable
    Overall bit rate            : 31.5 Mb/s
    Movie name                  : The Cloverfield Paradox (2018) REMUX 1080p Latino - CMHDD
    Encoded date                : UTC 2023-12-14 22:16:39
    Writing application         : mkvmerge v47.0.0 ('Black Flag') 64-bit
    Writing library             : libebml v1.3.10 + libmatroska v1.5.2

    Video
    ID                          : 1
    Format                      : AVC
    Format/Info                 : Advanced Video Codec
    Format profile              : High@L4.1
    Format settings             : CABAC / 4 Ref Frames
    Format settings, CABAC      : Yes
    Format settings, Reference  : 4 frames
    Codec ID                    : V_MPEG4/ISO/AVC
    Duration                    : 1 h 41 min
    Bit rate mode               : Variable
    Bit rate                    : 25.5 Mb/s
    Maximum bit rate            : 28.4 Mb/s
    Width                       : 1 920 pixels
    Height                      : 1 080 pixels
    Display aspect ratio        : 16:9
    Frame rate mode             : Constant
    Frame rate                  : 23.976 (24000/1001) FPS
    Color space                 : YUV
    Chroma subsampling          : 4:2:0
    Bit depth                   : 8 bits
    Scan type                   : Progressive
    Bits/(Pixel*Frame)          : 0.513
    Stream size                 : 18.1 GiB (81%)
    Default                     : Yes
    Forced                      : No

    Audio #1
    ID                          : 2
    Format                      : AC-3
    Format/Info                 : Audio Coding 3
    Commercial name             : Dolby Digital
    Codec ID                    : A_AC3
    Duration                    : 1 h 41 min
    Bit rate mode               : Constant
    Bit rate                    : 640 kb/s
    Channel(s)                  : 6 channels
    Channel layout              : L R C LFE Ls Rs
    Sampling rate               : 48.0 kHz
    Frame rate                  : 31.250 FPS (1536 SPF)
    Compression mode            : Lossy
    Delay relative to video     : -7 ms
    Stream size                 : 466 MiB (2%)
    Language                    : Spanish
    Service kind                : Complete Main
    Default                     : Yes
    Forced                      : Yes

    Audio #2
    ID                          : 3
    Format                      : AC-3
    Format/Info                 : Audio Coding 3
    Commercial name             : Dolby Digital
    Format settings             : Dolby Surround EX
    Codec ID                    : A_AC3
    Duration                    : 1 h 41 min
    Bit rate mode               : Constant
    Bit rate                    : 640 kb/s
    Channel(s)                  : 6 channels
    Channel layout              : L R C LFE Ls Rs
    Sampling rate               : 48.0 kHz
    Frame rate                  : 31.250 FPS (1536 SPF)
    Compression mode            : Lossy
    Stream size                 : 466 MiB (2%)
    Language                    : English
    Service kind                : Complete Main
    Default                     : No
    Forced                      : No

    Audio #3
    ID                          : 4
    Format                      : MLP FBA 16-ch
    Format/Info                 : Meridian Lossless Packing FBA with 16-channel presentation
    Commercial name             : Dolby TrueHD with Dolby Atmos
    Codec ID                    : A_TRUEHD
    Duration                    : 1 h 41 min
    Bit rate mode               : Variable
    Bit rate                    : 4 631 kb/s
    Maximum bit rate            : 8 757 kb/s
    Channel(s)                  : 8 channels
    Channel layout              : L R C LFE Ls Rs Lb Rb
    Sampling rate               : 48.0 kHz
    Frame rate                  : 1 200.000 FPS (40 SPF)
    Compression mode            : Lossless
    Stream size                 : 3.29 GiB (15%)
    Language                    : English
    Default                     : No
    Forced                      : No
    Number of dynamic objects   : 11
    Bed channel count           : 1 channel
    Bed channel configuration   : LFE

    Text #1
    ID                          : 5
    Format                      : UTF-8
    Codec ID                    : S_TEXT/UTF8
    Codec ID/Info               : UTF-8 Plain Text
    Duration                    : 1 h 29 min
    Bit rate                    : 4 b/s
    Frame rate                  : 0.019 FPS
    Count of elements           : 101
    Stream size                 : 2.79 KiB (0%)
    Title                       : Forzados
    Language                    : Spanish
    Default                     : Yes
    Forced                      : Yes

    Text #2
    ID                          : 6
    Format                      : UTF-8
    Codec ID                    : S_TEXT/UTF8
    Codec ID/Info               : UTF-8 Plain Text
    Duration                    : 1 h 36 min
    Bit rate                    : 45 b/s
    Frame rate                  : 0.197 FPS
    Count of elements           : 1137
    Stream size                 : 32.0 KiB (0%)
    Language                    : Spanish
    Default                     : No
    Forced                      : No

    Text #3
    ID                          : 7
    Format                      : PGS
    Muxing mode                 : zlib
    Codec ID                    : S_HDMV/PGS
    Codec ID/Info               : Picture based subtitle format used on BDs/HD-DVDs
    Duration                    : 1 h 41 min
    Bit rate                    : 29.8 kb/s
    Frame rate                  : 0.381 FPS
    Count of elements           : 2325
    Stream size                 : 21.7 MiB (0%)
    Language                    : Spanish
    Default                     : No
    Forced                      : No

     

  • Peso: 22.4 GiB

Sinopsis

Con la Tierra en guerra y en mitad de una crisis energética, un equipo de astronautas se encuentra en el espacio tratando de dar con una solución a los problemas del planeta. Pero durante una maniobra fallida, quedan flotando sin saber muy bien qué o cómo volver a su lugar de origen, y las cosas dentro de la nave ocultan una realidad mucho más terrorífica.

Ficha técnica

Video trailer de la película

Enlaces de descarga

Rip de Bluray

Descargar The Cloverfield Paradox (2018) REMUX 1080p Latino – CMHDD




Aportes de DPeliculasHDmega la pass es:dpeliculashdmega.org Aportes de CinemaniaHD la pass es:cinemaniahdd.com Aportes recientes:cinemaniahdd.net

Películas relacionadas

descargar The Cloverfield Paradox (2018) REMUX 1080p Latino – CMHDD Full 1080p 1080p gratis, The Cloverfield Paradox (2018) REMUX 1080p Latino – CMHDD Full 1080p mega 1 link, The Cloverfield Paradox (2018) REMUX 1080p Latino – CMHDD Full 1080p pelicula completa, descargar The Cloverfield Paradox (2018) REMUX 1080p Latino – CMHDD Full 1080p gratis en mega.

The Cloverfield Paradox (2018) REMUX 1080p Latino – CMHDD pelicula full hd, The Cloverfield Paradox (2018) REMUX 1080p Latino – CMHDD mega latino, The Cloverfield Paradox (2018) REMUX 1080p Latino – CMHDD 4k latino, The Cloverfield Paradox (2018) REMUX 1080p Latino – CMHDD pelicula completa, The Cloverfield Paradox (2018) REMUX 1080p Latino – CMHDD descargar gratis, descargar The Cloverfield Paradox (2018) REMUX 1080p Latino – CMHDD pelicula latino, The Cloverfield Paradox (2018) REMUX 1080p Latino – CMHDD 1 link mega, The Cloverfield Paradox (2018) REMUX 1080p Latino – CMHDD 1 link google drive, The Cloverfield Paradox (2018) REMUX 1080p Latino – CMHDD hd 1080p latino.
Comentarios 0