×

¿Problemas para descargar con Mozilla, EDGE? Deshabilita la opción "Abrir vinculos en una pestaña nueva" tal como lo muestra ésta imagen.

The Cleaning Lady (2024) Temporada 3 AMZN WEB-DL 1080p Latino

37 vistas

Información de The Cleaning Lady (2024) Temporada 3 AMZN WEB-DL 1080p Latino

Datos de la película

  • Calidad: 1080p
  • Audio: Español Latino AC3 5.1 WEB-DL - Ingles AC3 5.1 WEB-DL
  • Subtitulos: Español Latino SRT- FORZADOS SRT
  • Resolución: 1920x1080
  • Formato: MKV
  • Codec: H.264
  • Encoder: cinemaniahdd
  • Mediainfo: Clic para Mostrar Datos Ver
  • The Cleaning Lady T03E01 AMZN WEB-DL 1080p Latino [CNMNHDD].mkv
    Format                      : Matroska
    Format version              : Version 4
    File size                   : 2.28 GiB
    Duration                    : 43 min 20 s
    Overall bit rate            : 7 530 kb/s
    Movie name                  : The Cleaning Lady S03E01 - Arman [1080p] - CinemaniaHDD.Net
    Encoded date                : UTC 2024-03-29 02:41:56
    Writing application         : mkvmerge v56.1.0 ('My Friend') 64-bit
    Writing library             : libebml v1.4.2 + libmatroska v1.6.4

    Video
    ID                          : 1
    Format                      : AVC
    Format/Info                 : Advanced Video Codec
    Format profile              : High@L4
    Format settings             : CABAC / 4 Ref Frames
    Format settings, CABAC      : Yes
    Format settings, Reference  : 4 frames
    Codec ID                    : V_MPEG4/ISO/AVC
    Duration                    : 43 min 20 s
    Bit rate mode               : Constant
    Bit rate                    : 5 607 kb/s
    Nominal bit rate            : 10 000 kb/s
    Width                       : 1 920 pixels
    Height                      : 960 pixels
    Display aspect ratio        : 2.000
    Frame rate mode             : Constant
    Frame rate                  : 23.976 (24000/1001) FPS
    Color space                 : YUV
    Chroma subsampling          : 4:2:0
    Bit depth                   : 8 bits
    Scan type                   : Progressive
    Bits/(Pixel*Frame)          : 0.127
    Stream size                 : 1.70 GiB (74%)
    Title                       : CinemaniaHDD.Net
    Default                     : Yes
    Forced                      : No
    Color range                 : Limited
    Color primaries             : BT.709
    Transfer characteristics    : BT.709
    Matrix coefficients         : BT.709

    Audio #1
    ID                          : 2
    Format                      : AC-3
    Format/Info                 : Audio Coding 3
    Commercial name             : Dolby Digital
    Codec ID                    : A_AC3
    Duration                    : 43 min 20 s
    Bit rate mode               : Constant
    Bit rate                    : 640 kb/s
    Channel(s)                  : 6 channels
    Channel layout              : L R C LFE Ls Rs
    Sampling rate               : 48.0 kHz
    Frame rate                  : 31.250 FPS (1536 SPF)
    Compression mode            : Lossy
    Stream size                 : 198 MiB (8%)
    Title                       : Español Latino [CinemaniaHDD]
    Language                    : Spanish
    Service kind                : Complete Main
    Default                     : Yes
    Forced                      : No

    Audio #2
    ID                          : 3
    Format                      : E-AC-3
    Format/Info                 : Enhanced AC-3
    Commercial name             : Dolby Digital Plus
    Codec ID                    : A_EAC3
    Duration                    : 43 min 20 s
    Bit rate mode               : Constant
    Bit rate                    : 640 kb/s
    Channel(s)                  : 6 channels
    Channel layout              : L R C LFE Ls Rs
    Sampling rate               : 48.0 kHz
    Frame rate                  : 31.250 FPS (1536 SPF)
    Compression mode            : Lossy
    Stream size                 : 198 MiB (8%)
    Title                       : Español Latino / EAC3 [CinemaniaHDD]
    Language                    : Spanish
    Service kind                : Complete Main
    Default                     : No
    Forced                      : No

    Audio #3
    ID                          : 4
    Format                      : E-AC-3
    Format/Info                 : Enhanced AC-3
    Commercial name             : Dolby Digital Plus
    Codec ID                    : A_EAC3
    Duration                    : 43 min 20 s
    Bit rate mode               : Constant
    Bit rate                    : 640 kb/s
    Channel(s)                  : 6 channels
    Channel layout              : L R C LFE Ls Rs
    Sampling rate               : 48.0 kHz
    Frame rate                  : 31.250 FPS (1536 SPF)
    Compression mode            : Lossy
    Stream size                 : 198 MiB (8%)
    Title                       : Inglés (Original) [CinemaniaHDD]
    Language                    : English
    Service kind                : Complete Main
    Default                     : No
    Forced                      : No

    Text #1
    ID                          : 5
    Format                      : UTF-8
    Codec ID                    : S_TEXT/UTF8
    Codec ID/Info               : UTF-8 Plain Text
    Duration                    : 43 min 14 s
    Bit rate                    : 56 b/s
    Count of elements           : 639
    Stream size                 : 18.0 KiB (0%)
    Title                       : Español Latino [CinemaniaHDD]
    Language                    : Spanish
    Default                     : No
    Forced                      : No

    Text #2
    ID                          : 6
    Format                      : UTF-8
    Codec ID                    : S_TEXT/UTF8
    Codec ID/Info               : UTF-8 Plain Text
    Duration                    : 42 min 31 s
    Bit rate                    : 73 b/s
    Count of elements           : 792
    Stream size                 : 23.0 KiB (0%)
    Title                       : Inglés [CinemaniaHDD]
    Language                    : English
    Default                     : No
    Forced                      : No

     

  • Peso: 2.28 GiB C/U --- 3 CAPÍTULOS DISPONIBLES

Sinopsis

Una serie de drama que se centra en Thony De La Rosa, una médica camboyana, a cuyo hijo Luca se le diagnostica un trastorno de inmunodeficiencia poco común y potencialmente mortal. Dejando a su esposo Marco en Filipinas, Thony llega a los Estados Unidos en busca de tratamiento médico urgente para su hijo, pero cuando el único donante de médula ósea compatible se retira y su visa expira, Thony se encuentra atrapada en Las Vegas, forzada a apoyar a su hijo trabajando como empleada de limpieza junto a su cuñada filipina Fiona. Después de presenciar accidentalmente un asesinato, Thony es reclutada por el mafioso Arman Morales para usar sus habilidades médicas como «limpiadora», borrando la evidencia de los crímenes de la mafia. Al cruzar a un mundo de moral gris, Thony comienza a vivir una doble vida, guardando secretos a su familia mientras limpia escenas del crimen y esquiva la ley, jugando según sus propias reglas en un peligroso inframundo criminal.

3 CAPÍTULOS DISPONIBLES

Ficha técnica

Video trailer de la película

Enlaces de descarga

Rip de Bluray

Descargar The Cleaning Lady (2024) Temporada 3 AMZN WEB-DL 1080p Latino




Aportes de DPeliculasHDmega la pass es:dpeliculashdmega.org Aportes de CinemaniaHD la pass es:cinemaniahdd.com Aportes recientes:cinemaniahdd.net
Guardado en : Crimen , Drama , Series

Películas relacionadas

descargar The Cleaning Lady (2024) Temporada 3 AMZN WEB-DL 1080p Latino 1080p 1080p gratis, The Cleaning Lady (2024) Temporada 3 AMZN WEB-DL 1080p Latino 1080p mega 1 link, The Cleaning Lady (2024) Temporada 3 AMZN WEB-DL 1080p Latino 1080p serie completa, descargar The Cleaning Lady (2024) Temporada 3 AMZN WEB-DL 1080p Latino 1080p gratis en mega.

The Cleaning Lady (2024) Temporada 3 AMZN WEB-DL 1080p Latino pelicula full hd, The Cleaning Lady (2024) Temporada 3 AMZN WEB-DL 1080p Latino mega latino, The Cleaning Lady (2024) Temporada 3 AMZN WEB-DL 1080p Latino 4k latino, The Cleaning Lady (2024) Temporada 3 AMZN WEB-DL 1080p Latino pelicula completa, The Cleaning Lady (2024) Temporada 3 AMZN WEB-DL 1080p Latino descargar gratis, descargar The Cleaning Lady (2024) Temporada 3 AMZN WEB-DL 1080p Latino pelicula latino, The Cleaning Lady (2024) Temporada 3 AMZN WEB-DL 1080p Latino 1 link mega, The Cleaning Lady (2024) Temporada 3 AMZN WEB-DL 1080p Latino 1 link google drive, The Cleaning Lady (2024) Temporada 3 AMZN WEB-DL 1080p Latino hd 1080p latino.
Comentarios 0