×

¿Problemas para descargar con Mozilla, EDGE? Deshabilita la opción "Abrir vinculos en una pestaña nueva" tal como lo muestra ésta imagen.

The Cleaning Lady (2022) Primera Temporada WEB-DL 1080p Latino

2.136 vistas

Información de The Cleaning Lady (2022) Primera Temporada WEB-DL 1080p Latino

Datos de la película

  • Calidad: 1080p
  • Audio: Español Latino AC3 5.1 WEB-DL - Ingles AC3 5.1 WEB-DL
  • Subtitulos: Español Latino SRT- FORZADOS SRT
  • Resolución: 1920x1080
  • Formato: MKV
  • Codec: H.264
  • Encoder: cinemaniahdd
  • Mediainfo: Clic para Mostrar Datos Ver
  • The Cleaning Lady T01E01 WEB-DL 1080p Latino [CNMNHDD].mkv
    Format                      : Matroska
    Format version              : Version 4
    File size                   : 2.81 GiB
    Duration                    : 44 min 39 s
    Overall bit rate mode       : Variable
    Overall bit rate            : 8 999 kb/s
    Movie name                  : The Cleaning Lady S01E01 - TNT [1080p]
    Encoded date                : UTC 2022-02-03 17:47:29
    Writing application         : mkvmerge v58.0.0 ('Supper's Ready') 32-bit
    Writing library             : libebml v1.4.2 + libmatroska v1.6.4

    Video
    ID                          : 1
    Format                      : AVC
    Format/Info                 : Advanced Video Codec
    Format profile              : High@L4
    Format settings             : CABAC / 4 Ref Frames
    Format settings, CABAC      : Yes
    Format settings, Reference  : 4 frames
    Codec ID                    : V_MPEG4/ISO/AVC
    Duration                    : 44 min 39 s
    Bit rate mode               : Variable
    Bit rate                    : 8 250 kb/s
    Maximum bit rate            : 12.4 Mb/s
    Width                       : 1 920 pixels
    Height                      : 1 080 pixels
    Display aspect ratio        : 16:9
    Frame rate mode             : Constant
    Frame rate                  : 23.976 (24000/1001) FPS
    Color space                 : YUV
    Chroma subsampling          : 4:2:0
    Bit depth                   : 8 bits
    Scan type                   : Progressive
    Bits/(Pixel*Frame)          : 0.166
    Stream size                 : 2.57 GiB (91%)
    Title                       : CinemaniaHDD
    Writing library             : x264 core 157 r2965 861cec4
    Encoding settings           : cabac=1 / ref=4 / deblock=1:0:0 / analyse=0x3:0x113 / me=hex / subme=7 / psy=1 / psy_rd=1.00:0.00 / mixed_ref=1 / me_range=16 / chroma_me=1 / trellis=1 / 8x8dct=1 / cqm=0 / deadzone=21,11 / fast_pskip=1 / chroma_qp_offset=-2 / threads=34 / lookahead_threads=5 / sliced_threads=0 / nr=0 / decimate=1 / interlaced=0 / bluray_compat=0 / constrained_intra=0 / bframes=3 / b_pyramid=2 / b_adapt=1 / b_bias=0 / direct=1 / weightb=1 / open_gop=0 / weightp=2 / keyint=96 / keyint_min=96 / scenecut=40 / intra_refresh=0 / rc_lookahead=40 / rc=2pass / mbtree=1 / bitrate=8250 / ratetol=1.0 / qcomp=0.60 / qpmin=0 / qpmax=69 / qpstep=4 / cplxblur=20.0 / qblur=0.5 / vbv_maxrate=12375 / vbv_bufsize=6187 / nal_hrd=vbr / filler=0 / ip_ratio=1.40 / aq=1:1.00
    Default                     : Yes
    Forced                      : No
    Color range                 : Limited
    Color primaries             : BT.709
    Transfer characteristics    : BT.709
    Matrix coefficients         : BT.709

    Audio #1
    ID                          : 2
    Format                      : AC-3
    Format/Info                 : Audio Coding 3
    Commercial name             : Dolby Digital
    Codec ID                    : A_AC3
    Duration                    : 44 min 39 s
    Bit rate mode               : Constant
    Bit rate                    : 384 kb/s
    Channel(s)                  : 6 channels
    Channel layout              : L R C LFE Ls Rs
    Sampling rate               : 48.0 kHz
    Frame rate                  : 31.250 FPS (1536 SPF)
    Compression mode            : Lossy
    Stream size                 : 123 MiB (4%)
    Title                       : Español latino [CinemaniaHDD]
    Language                    : Spanish
    Service kind                : Complete Main
    Default                     : Yes
    Forced                      : No

    Audio #2
    ID                          : 3
    Format                      : AC-3
    Format/Info                 : Audio Coding 3
    Commercial name             : Dolby Digital
    Codec ID                    : A_AC3
    Duration                    : 44 min 39 s
    Bit rate mode               : Constant
    Bit rate                    : 384 kb/s
    Channel(s)                  : 6 channels
    Channel layout              : L R C LFE Ls Rs
    Sampling rate               : 48.0 kHz
    Frame rate                  : 31.250 FPS (1536 SPF)
    Compression mode            : Lossy
    Stream size                 : 123 MiB (4%)
    Title                       : Inglés [CinemaniaHDD]
    Language                    : English
    Service kind                : Complete Main
    Default                     : No
    Forced                      : No

    Text #1
    ID                          : 4
    Format                      : UTF-8
    Codec ID                    : S_TEXT/UTF8
    Codec ID/Info               : UTF-8 Plain Text
    Duration                    : 32 min 23 s
    Bit rate                    : 0 b/s
    Count of elements           : 3
    Stream size                 : 65.0 Bytes (0%)
    Title                       : Forzados [CinemaniaHDD]
    Language                    : Spanish
    Default                     : No
    Forced                      : Yes

    Text #2
    ID                          : 5
    Format                      : UTF-8
    Codec ID                    : S_TEXT/UTF8
    Codec ID/Info               : UTF-8 Plain Text
    Duration                    : 44 min 10 s
    Bit rate                    : 51 b/s
    Count of elements           : 525
    Stream size                 : 16.6 KiB (0%)
    Title                       : Español latino [CinemaniaHDD]
    Language                    : Spanish
    Default                     : No
    Forced                      : No

     

  • Peso: 3.19 GiB Aprox ---- 28 GiB in 10 Chapters.

Sinopsis

Thony De La Rosa es una médica camboyana, a cuyo hijo Luca se le diagnostica un trastorno de inmunodeficiencia poco común y potencialmente mortal. Dejando a su esposo Marco en Filipinas, Thony llega a los Estados Unidos en busca de tratamiento médico urgente para su hijo, pero cuando el único donante de médula ósea compatible se retira y su visa expira, Thony se encuentra atrapada en Las Vegas, forzada a apoyar a su hijo trabajando como empleada de limpieza junto a su cuñada filipina Fiona. Después de presenciar accidentalmente un asesinato, Thony es reclutada por el mafioso Arman Morales para usar sus habilidades médicas como «limpiadora», borrando la evidencia de los crímenes de la mafia. Al cruzar a un mundo de moral gris, Thony comienza a vivir una doble vida, guardando secretos a su familia mientras limpia escenas del crimen y esquiva la ley, jugando según sus propias reglas en un peligroso inframundo criminal.

Ficha técnica

Video trailer de la película

Enlaces de descarga

Rip de Bluray

Descargar The Cleaning Lady (2022) Primera Temporada WEB-DL 1080p Latino




Aportes de DPeliculasHDmega la pass es:dpeliculashdmega.org Aportes de CinemaniaHD la pass es:cinemaniahdd.com
Guardado en : Crimen , Drama , Series

Películas relacionadas

descargar The Cleaning Lady (2022) Primera Temporada WEB-DL 1080p Latino 1080p 1080p gratis, The Cleaning Lady (2022) Primera Temporada WEB-DL 1080p Latino 1080p mega 1 link, The Cleaning Lady (2022) Primera Temporada WEB-DL 1080p Latino 1080p serie completa, descargar The Cleaning Lady (2022) Primera Temporada WEB-DL 1080p Latino 1080p gratis en mega.

The Cleaning Lady (2022) Primera Temporada WEB-DL 1080p Latino pelicula full hd, The Cleaning Lady (2022) Primera Temporada WEB-DL 1080p Latino mega latino, The Cleaning Lady (2022) Primera Temporada WEB-DL 1080p Latino 4k latino, The Cleaning Lady (2022) Primera Temporada WEB-DL 1080p Latino pelicula completa, The Cleaning Lady (2022) Primera Temporada WEB-DL 1080p Latino descargar gratis, descargar The Cleaning Lady (2022) Primera Temporada WEB-DL 1080p Latino pelicula latino, The Cleaning Lady (2022) Primera Temporada WEB-DL 1080p Latino 1 link mega, The Cleaning Lady (2022) Primera Temporada WEB-DL 1080p Latino 1 link google drive, The Cleaning Lady (2022) Primera Temporada WEB-DL 1080p Latino hd 1080p latino.
Comentarios 1
  • david - 30 marzo, 2022

    Me permites mencionarlo en mi sitio web… Muchas gracias, Un saludo