×

¿Problemas para descargar con Mozilla, EDGE? Deshabilita la opción "Abrir vinculos en una pestaña nueva" tal como lo muestra ésta imagen.

Las Crónicas De Riddick (2004) UNRATED REMUX 1080p Latino

382 vistas

Información de Las Crónicas De Riddick (2004) UNRATED REMUX 1080p Latino

Datos de la película

  • Calidad: Full 1080p
  • Audio: Español Latino DTS 5.1 BLURAY - Ingles DTS 5.1 BLURAY
  • Subtitulos: Español Latino PGS - Ingles PGS
  • Resolución: 1920x1080p
  • Formato: MKV
  • Codec: H.264
  • Encoder: CinefiloCool
  • Mediainfo: Clic para Mostrar Datos Ver
  • Las Cronicas De Riddick (2004) Unrated DC REMUX 1080p Latino-CMHDD.mkv
    Format                      : Matroska
    Format version              : Version 4
    File size                   : 32.6 GiB
    Duration                    : 2 h 14 min
    Overall bit rate mode       : Variable
    Overall bit rate            : 34.8 Mb/s
    Movie name                  : The Chronicles Of Riddick (2004) CinemaniaHDD.Net
    Encoded date                : UTC 2020-08-30 06:08:27
    Writing application         : mkvmerge v46.0.0 ('No Deeper Escape') 64-bit
    Writing library             : libebml v1.3.10 + libmatroska v1.5.2
    Attachments                 : CINEMANIAHD.png

    Video
    ID                          : 1
    Format                      : AVC
    Format/Info                 : Advanced Video Codec
    Format profile              : High@L4.1
    Format settings             : CABAC / 2 Ref Frames
    Format settings, CABAC      : Yes
    Format settings, Reference  : 2 frames
    Format settings, GOP        : M=1, N=10
    Codec ID                    : V_MPEG4/ISO/AVC
    Duration                    : 2 h 14 min
    Bit rate mode               : Variable
    Bit rate                    : 29.7 Mb/s
    Width                       : 1 920 pixels
    Height                      : 1 080 pixels
    Display aspect ratio        : 16:9
    Frame rate mode             : Constant
    Frame rate                  : 23.976 (24000/1001) FPS
    Color space                 : YUV
    Chroma subsampling          : 4:2:0
    Bit depth                   : 8 bits
    Scan type                   : Progressive
    Bits/(Pixel*Frame)          : 0.597
    Stream size                 : 27.8 GiB (85%)
    Title                       : REMUX 1080p [CinemaniaHDD]
    Default                     : Yes
    Forced                      : Yes

    Audio #1
    ID                          : 2
    ID in the original source m : 4353 (0x1101)
    Format                      : DTS
    Format/Info                 : Digital Theater Systems
    Codec ID                    : A_DTS
    Duration                    : 2 h 14 min
    Bit rate mode               : Constant
    Bit rate                    : 768 kb/s
    Channel(s)                  : 6 channels
    Channel layout              : C L R Ls Rs LFE
    Sampling rate               : 48.0 kHz
    Frame rate                  : 93.750 FPS (512 SPF)
    Bit depth                   : 24 bits
    Compression mode            : Lossy
    Delay relative to video     : 1 ms
    Stream size                 : 736 MiB (2%)
    Title                       : Español Latino [CinemaniaHDD]
    Language                    : Spanish
    Default                     : Yes
    Forced                      : Yes
    Original source medium      : Blu-ray

    Audio #2
    ID                          : 3
    Format                      : DTS XLL
    Format/Info                 : Digital Theater Systems
    Commercial name             : DTS-HD Master Audio
    Codec ID                    : A_DTS
    Duration                    : 2 h 14 min
    Bit rate mode               : Variable
    Bit rate                    : 4 365 kb/s
    Channel(s)                  : 6 channels
    Channel layout              : C L R Ls Rs LFE
    Sampling rate               : 48.0 kHz
    Frame rate                  : 93.750 FPS (512 SPF)
    Bit depth                   : 24 bits
    Compression mode            : Lossless
    Stream size                 : 4.09 GiB (13%)
    Title                       : Ingles [CinemaniaHDD]
    Language                    : English
    Default                     : No
    Forced                      : No

    Text #1
    ID                          : 4
    ID in the original source m : 4611 (0x1203)
    Format                      : PGS
    Muxing mode                 : zlib
    Codec ID                    : S_HDMV/PGS
    Codec ID/Info               : Picture based subtitle format used on BDs/HD-DVDs
    Duration                    : 52 min 23 s
    Bit rate                    : 671 b/s
    Count of elements           : 24
    Stream size                 : 258 KiB (0%)
    Title                       : Forzados-PGS [CinemaniaHDD]
    Language                    : Spanish
    Default                     : Yes
    Forced                      : Yes
    Original source medium      : Blu-ray

    Text #2
    ID                          : 5
    Format                      : PGS
    Muxing mode                 : zlib
    Codec ID                    : S_HDMV/PGS
    Codec ID/Info               : Picture based subtitle format used on BDs/HD-DVDs
    Duration                    : 2 h 2 min
    Bit rate                    : 19.7 kb/s
    Count of elements           : 1850
    Stream size                 : 17.3 MiB (0%)
    Title                       : Español-PGS [CinemaniaHDD]
    Language                    : Spanish
    Default                     : No
    Forced                      : No

    Text #3
    ID                          : 6
    Format                      : PGS
    Muxing mode                 : zlib
    Codec ID                    : S_HDMV/PGS
    Codec ID/Info               : Picture based subtitle format used on BDs/HD-DVDs
    Duration                    : 2 h 2 min
    Bit rate                    : 23.1 kb/s
    Count of elements           : 2044
    Stream size                 : 20.3 MiB (0%)
    Title                       : Ingles-PGS [CinemaniaHDD]
    Language                    : English
    Default                     : No
    Forced                      : No

    Text #4
    ID                          : 7
    Format                      : UTF-8
    Codec ID                    : S_TEXT/UTF8
    Codec ID/Info               : UTF-8 Plain Text
    Duration                    : 52 min 23 s
    Bit rate                    : 0 b/s
    Count of elements           : 12
    Stream size                 : 330 Bytes (0%)
    Title                       : Forzados-SRT [CinemaniaHDD]
    Language                    : Spanish
    Default                     : No
    Forced                      : No

    Text #5
    ID                          : 8
    Format                      : UTF-8
    Codec ID                    : S_TEXT/UTF8
    Codec ID/Info               : UTF-8 Plain Text
    Duration                    : 2 h 2 min
    Bit rate                    : 34 b/s
    Count of elements           : 928
    Stream size                 : 31.2 KiB (0%)
    Title                       : Español-SRT [CinemaniaHDD]
    Language                    : Spanish
    Default                     : No
    Forced                      : No

    Menu
    00:00:00.000                : en:The Necromongers
    00:02:37.324                : en:Hard Bounty
    00:07:03.506                : en:Back to Civilization
    00:11:23.641                : en:A Fighting Chance
    00:15:29.804                : en:A True Furyan
    00:20:56.755                : en:Attack of the Necromongers
    00:27:09.711                : en:Lensing & Cleansing
    00:31:25.300                : en:The Lord Marshal's Offer
    00:38:50.328                : en:Mind Regression
    00:43:30.566                : en:Caught
    00:47:16.417                : en:You Can Keep What You Kill
    00:53:36.338                : en:Welcome to Crematoria
    01:01:34.816                : en:Jack's Dead...
    01:04:27.822                : en:A Private War
    01:08:43.578                : en:Feeding Time
    01:11:41.172                : en:Two Killers
    01:17:17.049                : en:Good News & Bad News
    01:22:48.005                : en:Running the Surface
    01:29:03.129                : en:The Big Heat
    01:32:40.472                : en:The Better Killer
    01:41:11.649                : en:This Is Your Chance
    01:44:26.218                : en:What Are the Odds?
    01:48:13.195                : en:The Enemy Within
    01:53:16.581                : en:Convert or Fall
    01:57:00.680                : en:The Soul of a Furyan
    01:59:58.691                : en:Kill the Beast
    02:03:03.751                : en:At the Feet of an Outlaw
    02:04:06.064                : en:End Titles

  • Peso: 32.6 GiB

Sinopsis

Descargar Las Crónicas De Riddick (2004) UNRATED REMUX 1080p Latino. Riddick se ha pasado los últimos cinco años vagando por la galaxia, tratando de huir de los mercenarios que lo buscan. Ahora se encuentra en el planeta Helion, hogar de una sociedad progresista y multicultural que ha sido invadida por Lord Marshal, un déspota que tiene sometidos a los seres humanos gracias a su ejército de guerreros, los Necromongers.

Ficha técnica

Video trailer de la película

Enlaces de descarga

Rip de Bluray

Descargar Las Crónicas De Riddick (2004) UNRATED REMUX 1080p Latino




Aportes de DPeliculasHDmega la pass es:dpeliculashdmega.org Aportes de CinemaniaHD la pass es:cinemaniahdd.com
Guardado en : Acción , Ciencia ficción , Remux

Películas relacionadas

  • El Cuartel Secreto (2022) WEB-DL 4K UHD HDR Latino

    El Cuartel Secreto (2022) WEB-DL 4K UHD HDR Latino

    2022
    El Cuartel Secreto (2022) WEB-DL 4K UHD HDR Latino

    1h 44m 2022

    Descargar El Cuartel Secreto (2022) WEB-DL 4K UHD HDR Latino. Mientras pasan el rato después de la escuela,...

    Director: Henry Joost

    Género: 4K HDR

    Actores: Zeb Slone

  • El Cuartel Secreto (2022) WEB-DL 1080p Latino

    El Cuartel Secreto (2022) WEB-DL 1080p Latino

    2022
    El Cuartel Secreto (2022) WEB-DL 1080p Latino

    1h 44m 2022

    Descargar El Cuartel Secreto (2022) WEB-DL 1080p Latino. Mientras pasan el rato después de la escuela,...

    Director: Henry Joost

    Género: Acción

    Actores: Zeb Slone

  • Men in Black (1997) REMUX 4K HDR Latino – CMHDD

    Men in Black (1997) REMUX 4K HDR Latino – CMHDD

    1997
    Men in Black (1997) REMUX 4K HDR Latino – CMHDD

    1h 34m 1997

    Durante muchos años los extraterrestres han vivido en la Tierra, mezclados con los humanos, sin que...

    Director: Tyrone S. Walker

    Género: Acción

    Actores: Willie C. Carpenter

  • Borrego: Sal Del Camino (2022) REMUX 1080p Latino

    Borrego: Sal Del Camino (2022) REMUX 1080p Latino

    2022
    Borrego: Sal Del Camino (2022) REMUX 1080p Latino

    1h 42m 2022

    Descargar Borrego: Sal Del Camino (2022) REMUX 1080p Latino. Una joven botánica se traslada a un pequeño...

    Director: Jesse Harris

    Género: Crimen

    Actores: Olivia Trujillo

  • Tren Bala (2022) WEB-DL 4K UHD HDR Latino

    Tren Bala (2022) WEB-DL 4K UHD HDR Latino

    2022
    Tren Bala (2022) WEB-DL 4K UHD HDR Latino

    2h 7m 2022

    Descargar Tren Bala (2022) WEB-DL 4K UHD HDR Latino. El desafortunado asesino "Catarina" está decidido...

    Director: Paul Barry

    Género: 4K HDR

    Actores: Zooey Miyoshi

descargar Las Crónicas De Riddick (2004) UNRATED REMUX 1080p Latino Full 1080p 1080p gratis, Las Crónicas De Riddick (2004) UNRATED REMUX 1080p Latino Full 1080p mega 1 link, Las Crónicas De Riddick (2004) UNRATED REMUX 1080p Latino Full 1080p pelicula completa, descargar Las Crónicas De Riddick (2004) UNRATED REMUX 1080p Latino Full 1080p gratis en mega.

Las Crónicas De Riddick (2004) UNRATED REMUX 1080p Latino pelicula full hd, Las Crónicas De Riddick (2004) UNRATED REMUX 1080p Latino mega latino, Las Crónicas De Riddick (2004) UNRATED REMUX 1080p Latino 4k latino, Las Crónicas De Riddick (2004) UNRATED REMUX 1080p Latino pelicula completa, Las Crónicas De Riddick (2004) UNRATED REMUX 1080p Latino descargar gratis, descargar Las Crónicas De Riddick (2004) UNRATED REMUX 1080p Latino pelicula latino, Las Crónicas De Riddick (2004) UNRATED REMUX 1080p Latino 1 link mega, Las Crónicas De Riddick (2004) UNRATED REMUX 1080p Latino 1 link google drive, Las Crónicas De Riddick (2004) UNRATED REMUX 1080p Latino hd 1080p latino.
Comentarios 2
  • PepeCumija - 03 septiembre, 2020

    hola, ¿podrian subir los links en partes para los portes en remux? gracias

  • ocpgaiden - 01 septiembre, 2020

    Gracias y saludos