×

¿Problemas para descargar con Mozilla, EDGE? Deshabilita la opción "Abrir vinculos en una pestaña nueva" tal como lo muestra ésta imagen.

Las Crónicas De Riddick (2004) OPEN MATTE Web-DL 1080p Latino

2.527 vistas

Información de Las Crónicas De Riddick (2004) OPEN MATTE Web-DL 1080p Latino

Datos de la película

  • Calidad: WEBDL
  • Audio: Se especifica abajo de la Sinopsis
  • Subtitulos: Español Latino SRT - Ingles SRT
  • Resolución: 1920x1080p
  • Formato: MKV
  • Codec: H.264
  • Encoder: CinefiloCool
  • Mediainfo: Clic para Mostrar Datos Ver
  • Las Cronicas De Riddick (2004) Theatrical OPEN MATTE Web 1080p Latino-CMHDD.mkv
    Format                      : Matroska
    Format version              : Version 4
    File size                   : 8.94 GiB
    Duration                    : 1 h 59 min
    Overall bit rate            : 10.7 Mb/s
    Movie name                  : The Chronicles Of Riddick (2004) CinemaniaHDD.Net
    Encoded date                : UTC 2020-08-31 04:10:49
    Writing application         : mkvmerge v46.0.0 ('No Deeper Escape') 64-bit
    Writing library             : libebml v1.3.10 + libmatroska v1.5.2
    Attachments                 : CINEMANIAHD.png

    Video
    ID                          : 1
    Format                      : AVC
    Format/Info                 : Advanced Video Codec
    Format profile              : High@L4
    Format settings             : CABAC / 4 Ref Frames
    Format settings, CABAC      : Yes
    Format settings, Reference  : 4 frames
    Codec ID                    : V_MPEG4/ISO/AVC
    Duration                    : 1 h 59 min
    Bit rate                    : 9 505 kb/s
    Width                       : 1 920 pixels
    Height                      : 1 080 pixels
    Display aspect ratio        : 16:9
    Frame rate mode             : Constant
    Frame rate                  : 23.976 (24000/1001) FPS
    Color space                 : YUV
    Chroma subsampling          : 4:2:0
    Bit depth                   : 8 bits
    Scan type                   : Progressive
    Bits/(Pixel*Frame)          : 0.191
    Stream size                 : 7.92 GiB (89%)
    Title                       : Web Open Matte [CinemaniaHDD]
    Language                    : English
    Default                     : Yes
    Forced                      : No
    Color range                 : Limited
    Color primaries             : BT.709
    Transfer characteristics    : BT.709
    Matrix coefficients         : BT.709

    Audio #1
    ID                          : 2
    ID in the original source m : 4353 (0x1101)
    Format                      : DTS
    Format/Info                 : Digital Theater Systems
    Codec ID                    : A_DTS
    Duration                    : 1 h 59 min
    Bit rate mode               : Constant
    Bit rate                    : 768 kb/s
    Channel(s)                  : 6 channels
    Channel layout              : C L R Ls Rs LFE
    Sampling rate               : 48.0 kHz
    Frame rate                  : 93.750 FPS (512 SPF)
    Bit depth                   : 24 bits
    Compression mode            : Lossy
    Delay relative to video     : 10 s 865 ms
    Stream size                 : 655 MiB (7%)
    Title                       : Español Latino [CinemaniaHDD]
    Language                    : Spanish
    Default                     : Yes
    Forced                      : No
    Original source medium      : Blu-ray

    Audio #2
    ID                          : 3
    Format                      : AC-3
    Format/Info                 : Audio Coding 3
    Commercial name             : Dolby Digital
    Codec ID                    : A_AC3
    Duration                    : 1 h 59 min
    Bit rate mode               : Constant
    Bit rate                    : 448 kb/s
    Channel(s)                  : 6 channels
    Channel layout              : L R C LFE Ls Rs
    Sampling rate               : 48.0 kHz
    Frame rate                  : 31.250 FPS (1536 SPF)
    Compression mode            : Lossy
    Stream size                 : 383 MiB (4%)
    Title                       : Ingles [CinemaniaHDD]
    Language                    : English
    Service kind                : Complete Main
    Default                     : No
    Forced                      : No

    Text #1
    ID                          : 4
    Format                      : UTF-8
    Codec ID                    : S_TEXT/UTF8
    Codec ID/Info               : UTF-8 Plain Text
    Duration                    : 44 min 48 s
    Bit rate                    : 0 b/s
    Count of elements           : 8
    Stream size                 : 198 Bytes (0%)
    Title                       : Forzados-SRT [CinemaniaHDD]
    Language                    : Spanish
    Default                     : Yes
    Forced                      : No

    Text #2
    ID                          : 5
    Format                      : UTF-8
    Codec ID                    : S_TEXT/UTF8
    Codec ID/Info               : UTF-8 Plain Text
    Duration                    : 1 h 48 min
    Bit rate                    : 29 b/s
    Count of elements           : 775
    Stream size                 : 23.5 KiB (0%)
    Title                       : Español-SRT [CinemaniaHDD]
    Language                    : Spanish
    Default                     : No
    Forced                      : No

    Text #3
    ID                          : 6
    Format                      : UTF-8
    Codec ID                    : S_TEXT/UTF8
    Codec ID/Info               : UTF-8 Plain Text
    Duration                    : 1 h 48 min
    Bit rate                    : 35 b/s
    Count of elements           : 962
    Stream size                 : 28.3 KiB (0%)
    Title                       : Ingles-SRT [CinemaniaHDD]
    Language                    : English
    Default                     : No
    Forced                      : No

    Menu
    00:00:10.865                : en:Chapter 01
    00:02:48.605                : en:Chapter 02
    00:07:24.214                : en:Chapter 03
    00:09:31.258                : en:Chapter 04
    00:12:49.080                : en:Chapter 05
    00:18:07.357                : en:Chapter 06
    00:23:34.892                : en:Chapter 07
    00:27:38.093                : en:Chapter 08
    00:34:14.323                : en:Chapter 09
    00:38:30.954                : en:Chapter 10
    00:41:48.568                : en:Chapter 11
    00:46:13.750                : en:Chapter 12
    00:53:37.902                : en:Chapter 13
    00:54:59.191                : en:Chapter 14
    00:57:04.233                : en:Chapter 15
    00:59:53.861                : en:Chapter 16
    01:07:30.650                : en:Chapter 17
    01:12:13.808                : en:Chapter 18
    01:18:08.829                : en:Chapter 19
    01:21:32.658                : en:Chapter 20
    01:27:38.774                : en:Chapter 21
    01:30:46.128                : en:Chapter 22
    01:33:43.597                : en:Chapter 23
    01:38:56.826                : en:Chapter 24
    01:42:17.944                : en:Chapter 25
    01:45:17.081                : en:Chapter 26
    01:48:17.970                : en:Chapter 27
    01:49:48.436                : en:Chapter 28

  • Peso: 8,94 GB

Sinopsis

Descargar Las Crónicas De Riddick (2004) OPEN MATTE Web-DL 1080p Latino. Riddick se ha pasado los últimos cinco años vagando por la galaxia, tratando de huir de los mercenarios que lo buscan. Ahora se encuentra en el planeta Helion, hogar de una sociedad prgresista y multicultural que ha sido invadida por Lord Marshal, un déspota que tiene sometidos a los seres humanos gracias a su ejército de guerreros, los Necromongers.

Audio Español Latino DTS 5.1 Bluray – Ingles AC3 5.1 WebDL

Ficha técnica

Video trailer de la película

Enlaces de descarga

Rip de Bluray

Descargar Las Crónicas De Riddick (2004) OPEN MATTE Web-DL 1080p Latino




Aportes de DPeliculasHDmega la pass es:dpeliculashdmega.org Aportes de CinemaniaHD la pass es:cinemaniahdd.com Aportes recientes:cinemaniahdd.net

Películas relacionadas

  • Combate clandestino (2024) AMZN WEB-DL 1080p Latino

    Combate clandestino (2024) AMZN WEB-DL 1080p Latino

    2024
    Combate clandestino (2024) AMZN WEB-DL 1080p Latino

    1h 30m 2024

    Descargar Combate clandestino (2024) AMZN WEB-DL 1080p Latino. Un ex soldado a la deriva se convierte...

    Director: Christian Sesma

    Género: Acción

    Actores: Tyler Wombles

  • ¡Patos! (2023) HD 1080p Latino

    ¡Patos! (2023) HD 1080p Latino

    2023
    ¡Patos! (2023) HD 1080p Latino

    1h 23m 2023

    Descargar ¡Patos! (2023) HD 1080p Latino. Después de que una familia de patos migratorios aterriza...

    Director: Guy-Laurent Homsy

    Género: Acción

    Actores: Zeno Robinson

  • ¡Patos! (2023) PLACEBO Full HD 1080p Latino

    ¡Patos! (2023) PLACEBO Full HD 1080p Latino

    2023
    ¡Patos! (2023) PLACEBO Full HD 1080p Latino

    1h 23m 2023

    Descargar ¡Patos! (2023) PLACEBO Full HD 1080p Latino. Después de que una familia de patos migratorios...

    Director: Guy-Laurent Homsy

    Género: Acción

    Actores: Zeno Robinson

  • ¡Patos! (2023) REMUX 1080p Latino

    ¡Patos! (2023) REMUX 1080p Latino

    2023
    ¡Patos! (2023) REMUX 1080p Latino

    1h 23m 2023

    Descargar ¡Patos! (2023) REMUX 1080p Latino. Después de que una familia de patos migratorios aterriza...

    Director: Guy-Laurent Homsy

    Género: Acción

    Actores: Zeno Robinson

descargar Las Crónicas De Riddick (2004) OPEN MATTE Web-DL 1080p Latino WEBDL 1080p gratis, Las Crónicas De Riddick (2004) OPEN MATTE Web-DL 1080p Latino WEBDL mega 1 link, Las Crónicas De Riddick (2004) OPEN MATTE Web-DL 1080p Latino WEBDL pelicula completa, descargar Las Crónicas De Riddick (2004) OPEN MATTE Web-DL 1080p Latino WEBDL gratis en mega.

Las Crónicas De Riddick (2004) OPEN MATTE Web-DL 1080p Latino pelicula full hd, Las Crónicas De Riddick (2004) OPEN MATTE Web-DL 1080p Latino mega latino, Las Crónicas De Riddick (2004) OPEN MATTE Web-DL 1080p Latino 4k latino, Las Crónicas De Riddick (2004) OPEN MATTE Web-DL 1080p Latino pelicula completa, Las Crónicas De Riddick (2004) OPEN MATTE Web-DL 1080p Latino descargar gratis, descargar Las Crónicas De Riddick (2004) OPEN MATTE Web-DL 1080p Latino pelicula latino, Las Crónicas De Riddick (2004) OPEN MATTE Web-DL 1080p Latino 1 link mega, Las Crónicas De Riddick (2004) OPEN MATTE Web-DL 1080p Latino 1 link google drive, Las Crónicas De Riddick (2004) OPEN MATTE Web-DL 1080p Latino hd 1080p latino.
Comentarios 9