×

¿Problemas para descargar con Mozilla, EDGE? Deshabilita la opción "Abrir vinculos en una pestaña nueva" tal como lo muestra ésta imagen.

Las Crónicas De Riddick (2004) UNRATED 1080p Latino

352 vistas

Información de Las Crónicas De Riddick (2004) UNRATED 1080p Latino

Datos de la película

  • Calidad: 1080p
  • Audio: Español Latino AC3 5.1 BLURAY - Ingles AC3 5.1 BLURAY
  • Subtitulos: Español Latino SRT - Ingles SRT
  • Resolución: 1920x800p
  • Formato: MKV
  • Codec: H.264
  • Encoder: CinefiloCool
  • Mediainfo: Clic para Mostrar Datos Ver
  • Las Cronicas De Riddick (2004) Unrated DC 1080p Latino-CMHDD.mkv
    Format                      : Matroska
    Format version              : Version 4
    File size                   : 4.30 GiB
    Duration                    : 2 h 14 min
    Overall bit rate            : 4 590 kb/s
    Movie name                  : The Chronicles Of Riddick (2004) CinemaniaHDD.Net
    Encoded date                : UTC 2020-08-30 20:29:31
    Writing application         : mkvmerge v46.0.0 ('No Deeper Escape') 64-bit
    Writing library             : libebml v1.3.10 + libmatroska v1.5.2
    Attachments                 : CINEMANIAHD.png

    Video
    ID                          : 1
    Format                      : AVC
    Format/Info                 : Advanced Video Codec
    Format profile              : High@L4.1
    Format settings             : CABAC / 5 Ref Frames
    Format settings, CABAC      : Yes
    Format settings, Reference  : 5 frames
    Codec ID                    : V_MPEG4/ISO/AVC
    Duration                    : 2 h 14 min
    Bit rate                    : 3 500 kb/s
    Width                       : 1 920 pixels
    Height                      : 800 pixels
    Display aspect ratio        : 2.40:1
    Frame rate mode             : Constant
    Frame rate                  : 23.976 (24000/1001) FPS
    Color space                 : YUV
    Chroma subsampling          : 4:2:0
    Bit depth                   : 8 bits
    Scan type                   : Progressive
    Bits/(Pixel*Frame)          : 0.095
    Stream size                 : 3.28 GiB (76%)
    Title                       : HD1080p [CinemaniaHDD]
    Writing library             : x264 core 157 r2935 545de2f
    Encoding settings           : cabac=1 / ref=5 / deblock=1:-1:-1 / analyse=0x3:0x133 / me=umh / subme=9 / psy=1 / psy_rd=1.00:0.15 / mixed_ref=1 / me_range=16 / chroma_me=1 / trellis=2 / 8x8dct=1 / cqm=0 / deadzone=21,11 / fast_pskip=1 / chroma_qp_offset=-3 / threads=24 / lookahead_threads=2 / sliced_threads=0 / nr=0 / decimate=1 / interlaced=0 / bluray_compat=0 / constrained_intra=0 / bframes=3 / b_pyramid=2 / b_adapt=2 / b_bias=0 / direct=3 / weightb=1 / open_gop=0 / weightp=2 / keyint=240 / keyint_min=24 / scenecut=40 / intra_refresh=0 / rc_lookahead=60 / rc=2pass / mbtree=1 / bitrate=3500 / ratetol=1.0 / qcomp=0.60 / qpmin=0 / qpmax=69 / qpstep=4 / cplxblur=20.0 / qblur=0.5 / vbv_maxrate=62500 / vbv_bufsize=78125 / nal_hrd=none / filler=0 / ip_ratio=1.40 / aq=1:1.00
    Default                     : Yes
    Forced                      : No
    Color range                 : Limited
    Color primaries             : BT.709
    Transfer characteristics    : BT.709
    Matrix coefficients         : BT.709

    Audio #1
    ID                          : 2
    Format                      : AC-3
    Format/Info                 : Audio Coding 3
    Commercial name             : Dolby Digital
    Codec ID                    : A_AC3
    Duration                    : 2 h 14 min
    Bit rate mode               : Constant
    Bit rate                    : 640 kb/s
    Channel(s)                  : 6 channels
    Channel layout              : L R C LFE Ls Rs
    Sampling rate               : 48.0 kHz
    Frame rate                  : 31.250 FPS (1536 SPF)
    Compression mode            : Lossy
    Delay relative to video     : -4 ms
    Stream size                 : 614 MiB (14%)
    Title                       : Español Latino [CinemaniaHDD]
    Language                    : Spanish
    Service kind                : Complete Main
    Default                     : Yes
    Forced                      : No

    Audio #2
    ID                          : 3
    Format                      : AC-3
    Format/Info                 : Audio Coding 3
    Commercial name             : Dolby Digital
    Codec ID                    : A_AC3
    Duration                    : 2 h 14 min
    Bit rate mode               : Constant
    Bit rate                    : 448 kb/s
    Channel(s)                  : 6 channels
    Channel layout              : L R C LFE Ls Rs
    Sampling rate               : 48.0 kHz
    Frame rate                  : 31.250 FPS (1536 SPF)
    Compression mode            : Lossy
    Delay relative to video     : -5 ms
    Stream size                 : 430 MiB (10%)
    Title                       : Ingles [CinemaniaHDD]
    Language                    : English
    Service kind                : Complete Main
    Default                     : No
    Forced                      : No

    Text #1
    ID                          : 4
    Format                      : UTF-8
    Codec ID                    : S_TEXT/UTF8
    Codec ID/Info               : UTF-8 Plain Text
    Duration                    : 52 min 23 s
    Bit rate                    : 0 b/s
    Count of elements           : 12
    Stream size                 : 330 Bytes (0%)
    Title                       : Forzados-SRT [CinemaniaHDD]
    Language                    : Spanish
    Default                     : Yes
    Forced                      : No

    Text #2
    ID                          : 5
    Format                      : UTF-8
    Codec ID                    : S_TEXT/UTF8
    Codec ID/Info               : UTF-8 Plain Text
    Duration                    : 2 h 2 min
    Bit rate                    : 34 b/s
    Count of elements           : 928
    Stream size                 : 31.2 KiB (0%)
    Title                       : Español-SRT [CinemaniaHDD]
    Language                    : Spanish
    Default                     : No
    Forced                      : No

    Text #3
    ID                          : 6
    Format                      : UTF-8
    Codec ID                    : S_TEXT/UTF8
    Codec ID/Info               : UTF-8 Plain Text
    Duration                    : 2 h 4 min
    Bit rate                    : 34 b/s
    Count of elements           : 912
    Stream size                 : 31.6 KiB (0%)
    Title                       : Ingles-SRT [CinemaniaHDD]
    Language                    : English
    Default                     : No
    Forced                      : No

    Menu
    00:00:00.000                : en:The Necromongers
    00:02:37.324                : en:Hard Bounty
    00:07:03.506                : en:Back to Civilization
    00:11:23.641                : en:A Fighting Chance
    00:15:29.804                : en:A True Furyan
    00:20:56.755                : en:Attack of the Necromongers
    00:27:09.711                : en:Lensing & Cleansing
    00:31:25.300                : en:The Lord Marshal's Offer
    00:38:50.328                : en:Mind Regression
    00:43:30.566                : en:Caught
    00:47:16.417                : en:You Can Keep What You Kill
    00:53:36.338                : en:Welcome to Crematoria
    01:01:34.816                : en:Jack's Dead...
    01:04:27.822                : en:A Private War
    01:08:43.578                : en:Feeding Time
    01:11:41.172                : en:Two Killers
    01:17:17.049                : en:Good News & Bad News
    01:22:48.005                : en:Running the Surface
    01:29:03.129                : en:The Big Heat
    01:32:40.472                : en:The Better Killer
    01:41:11.649                : en:This Is Your Chance
    01:44:26.218                : en:What Are the Odds?
    01:48:13.195                : en:The Enemy Within
    01:53:16.581                : en:Convert or Fall
    01:57:00.680                : en:The Soul of a Furyan
    01:59:58.691                : en:Kill the Beast
    02:03:03.751                : en:At the Feet of an Outlaw
    02:04:06.064                : en:End Titles

  • Peso: 4.30 GiB

Sinopsis

Descargar Las Crónicas De Riddick (2004) UNRATED 1080p Latino. Riddick se ha pasado los últimos cinco años vagando por la galaxia, tratando de huir de los mercenarios que lo buscan. Ahora se encuentra en el planeta Helion, hogar de una sociedad progresista y multicultural que ha sido invadida por Lord Marshal, un déspota que tiene sometidos a los seres humanos gracias a su ejército de guerreros, los Necromongers.

Ficha técnica

Video trailer de la película

Enlaces de descarga

Rip de Bluray

Descargar Las Crónicas De Riddick (2004) UNRATED 1080p Latino




Aportes de DPeliculasHDmega la pass es:dpeliculashdmega.org Aportes de CinemaniaHD la pass es:cinemaniahdd.com
Guardado en : Acción , Ciencia ficción , HD 1080p

Películas relacionadas

descargar Las Crónicas De Riddick (2004) UNRATED 1080p Latino 1080p 1080p gratis, Las Crónicas De Riddick (2004) UNRATED 1080p Latino 1080p mega 1 link, Las Crónicas De Riddick (2004) UNRATED 1080p Latino 1080p pelicula completa, descargar Las Crónicas De Riddick (2004) UNRATED 1080p Latino 1080p gratis en mega.

Las Crónicas De Riddick (2004) UNRATED 1080p Latino pelicula full hd, Las Crónicas De Riddick (2004) UNRATED 1080p Latino mega latino, Las Crónicas De Riddick (2004) UNRATED 1080p Latino 4k latino, Las Crónicas De Riddick (2004) UNRATED 1080p Latino pelicula completa, Las Crónicas De Riddick (2004) UNRATED 1080p Latino descargar gratis, descargar Las Crónicas De Riddick (2004) UNRATED 1080p Latino pelicula latino, Las Crónicas De Riddick (2004) UNRATED 1080p Latino 1 link mega, Las Crónicas De Riddick (2004) UNRATED 1080p Latino 1 link google drive, Las Crónicas De Riddick (2004) UNRATED 1080p Latino hd 1080p latino.
Comentarios 0