Las Crónicas De Riddick (2004) UNRATED Full HD 1080p Latino

1.647 vistas
1 estrella2 estrellas3 estrellas4 estrellas5 estrellas (1 votos, promedio: 1,00 de 5)
Cargando...

Información de Las Crónicas De Riddick (2004) UNRATED Full HD 1080p Latino

Datos de la película

  • Calidad: Full 1080p
  • Audio: Español Latino DTS 5.1 BLURAY - Ingles DTS 5.1 BLURAY
  • Subtitulos: Español Latino PGS - Ingles PGS
  • Resolución: 1920x1080p
  • Formato: MKV
  • Codec: H.264
  • Encoder: CinefiloCool
  • Mediainfo: Clic para Mostrar Datos Ver
  • Las Cronicas De Riddick (2004) Unrated DC Full HD 1080p Latino-CMHDD.mkv
    Format                      : Matroska
    Format version              : Version 4
    File size                   : 7.20 GiB
    Duration                    : 2 h 14 min
    Overall bit rate            : 7 692 kb/s
    Movie name                  : The Chronicles Of Riddick (2004) CinemaniaHDD.Net
    Encoded date                : UTC 2020-08-31 01:45:05
    Writing application         : mkvmerge v46.0.0 ('No Deeper Escape') 64-bit
    Writing library             : libebml v1.3.10 + libmatroska v1.5.2
    Attachments                 : CINEMANIAHD.png

    Video
    ID                          : 1
    Format                      : AVC
    Format/Info                 : Advanced Video Codec
    Format profile              : High@L4.1
    Format settings             : CABAC / 4 Ref Frames
    Format settings, CABAC      : Yes
    Format settings, Reference  : 4 frames
    Codec ID                    : V_MPEG4/ISO/AVC
    Duration                    : 2 h 14 min
    Bit rate                    : 5 400 kb/s
    Width                       : 1 920 pixels
    Height                      : 1 080 pixels
    Display aspect ratio        : 16:9
    Frame rate mode             : Constant
    Frame rate                  : 23.976 (24000/1001) FPS
    Color space                 : YUV
    Chroma subsampling          : 4:2:0
    Bit depth                   : 8 bits
    Scan type                   : Progressive
    Bits/(Pixel*Frame)          : 0.109
    Stream size                 : 5.06 GiB (70%)
    Title                       : Full HD1080p [CinemaniaHDD]
    Writing library             : x264 core 157 r2935 545de2f
    Encoding settings           : cabac=1 / ref=4 / deblock=1:0:0 / analyse=0x3:0x133 / me=tesa / subme=11 / psy=1 / psy_rd=1.00:0.00 / mixed_ref=1 / me_range=24 / chroma_me=1 / trellis=2 / 8x8dct=1 / cqm=0 / deadzone=21,11 / fast_pskip=0 / chroma_qp_offset=-2 / threads=24 / lookahead_threads=6 / sliced_threads=0 / nr=0 / decimate=1 / interlaced=0 / bluray_compat=0 / constrained_intra=0 / bframes=16 / b_pyramid=2 / b_adapt=2 / b_bias=0 / direct=3 / weightb=1 / open_gop=0 / weightp=2 / keyint=240 / keyint_min=24 / scenecut=40 / intra_refresh=0 / rc_lookahead=60 / rc=crf / mbtree=1 / crf=20.0 / qcomp=0.60 / qpmin=0 / qpmax=69 / qpstep=4 / vbv_maxrate=62500 / vbv_bufsize=78125 / crf_max=0.0 / nal_hrd=none / filler=0 / ip_ratio=1.40 / aq=1:1.00
    Default                     : Yes
    Forced                      : Yes
    Color range                 : Limited
    Color primaries             : BT.709
    Transfer characteristics    : BT.709
    Matrix coefficients         : BT.709

    Audio #1
    ID                          : 2
    ID in the original source m : 4353 (0x1101)
    Format                      : DTS
    Format/Info                 : Digital Theater Systems
    Codec ID                    : A_DTS
    Duration                    : 2 h 14 min
    Bit rate mode               : Constant
    Bit rate                    : 768 kb/s
    Channel(s)                  : 6 channels
    Channel layout              : C L R Ls Rs LFE
    Sampling rate               : 48.0 kHz
    Frame rate                  : 93.750 FPS (512 SPF)
    Bit depth                   : 24 bits
    Compression mode            : Lossy
    Delay relative to video     : 1 ms
    Stream size                 : 736 MiB (10%)
    Title                       : Español Latino [CinemaniaHDD]
    Language                    : Spanish
    Default                     : Yes
    Forced                      : Yes
    Original source medium      : Blu-ray

    Audio #2
    ID                          : 3
    Format                      : DTS
    Format/Info                 : Digital Theater Systems
    Codec ID                    : A_DTS
    Duration                    : 2 h 14 min
    Bit rate mode               : Constant
    Bit rate                    : 1 509 kb/s
    Channel(s)                  : 6 channels
    Channel layout              : C L R Ls Rs LFE
    Sampling rate               : 48.0 kHz
    Frame rate                  : 93.750 FPS (512 SPF)
    Bit depth                   : 24 bits
    Compression mode            : Lossy
    Stream size                 : 1.41 GiB (20%)
    Title                       : Ingles [CinemaniaHDD]
    Language                    : English
    Default                     : No
    Forced                      : No

    Text #1
    ID                          : 4
    ID in the original source m : 4611 (0x1203)
    Format                      : PGS
    Muxing mode                 : zlib
    Codec ID                    : S_HDMV/PGS
    Codec ID/Info               : Picture based subtitle format used on BDs/HD-DVDs
    Duration                    : 52 min 23 s
    Bit rate                    : 671 b/s
    Count of elements           : 24
    Stream size                 : 258 KiB (0%)
    Title                       : Forzados-PGS [CinemaniaHDD]
    Language                    : Spanish
    Default                     : Yes
    Forced                      : Yes
    Original source medium      : Blu-ray

    Text #2
    ID                          : 5
    Format                      : PGS
    Muxing mode                 : zlib
    Codec ID                    : S_HDMV/PGS
    Codec ID/Info               : Picture based subtitle format used on BDs/HD-DVDs
    Duration                    : 2 h 2 min
    Bit rate                    : 19.7 kb/s
    Count of elements           : 1850
    Stream size                 : 17.3 MiB (0%)
    Title                       : Español-PGS [CinemaniaHDD]
    Language                    : Spanish
    Default                     : No
    Forced                      : No

    Text #3
    ID                          : 6
    Format                      : PGS
    Muxing mode                 : zlib
    Codec ID                    : S_HDMV/PGS
    Codec ID/Info               : Picture based subtitle format used on BDs/HD-DVDs
    Duration                    : 2 h 2 min
    Bit rate                    : 23.1 kb/s
    Count of elements           : 2044
    Stream size                 : 20.3 MiB (0%)
    Title                       : Ingles-PGS [CinemaniaHDD]
    Language                    : English
    Default                     : No
    Forced                      : No

    Text #4
    ID                          : 7
    Format                      : UTF-8
    Codec ID                    : S_TEXT/UTF8
    Codec ID/Info               : UTF-8 Plain Text
    Duration                    : 52 min 23 s
    Bit rate                    : 0 b/s
    Count of elements           : 12
    Stream size                 : 330 Bytes (0%)
    Title                       : Forzados-SRT [CinemaniaHDD]
    Language                    : Spanish
    Default                     : No
    Forced                      : No

    Text #5
    ID                          : 8
    Format                      : UTF-8
    Codec ID                    : S_TEXT/UTF8
    Codec ID/Info               : UTF-8 Plain Text
    Duration                    : 2 h 2 min
    Bit rate                    : 34 b/s
    Count of elements           : 928
    Stream size                 : 31.2 KiB (0%)
    Title                       : Español-SRT [CinemaniaHDD]
    Language                    : Spanish
    Default                     : No
    Forced                      : No

    Menu
    00:00:00.000                : en:The Necromongers
    00:02:37.324                : en:Hard Bounty
    00:07:03.506                : en:Back to Civilization
    00:11:23.641                : en:A Fighting Chance
    00:15:29.804                : en:A True Furyan
    00:20:56.755                : en:Attack of the Necromongers
    00:27:09.711                : en:Lensing & Cleansing
    00:31:25.300                : en:The Lord Marshal's Offer
    00:38:50.328                : en:Mind Regression
    00:43:30.566                : en:Caught
    00:47:16.417                : en:You Can Keep What You Kill
    00:53:36.338                : en:Welcome to Crematoria
    01:01:34.816                : en:Jack's Dead...
    01:04:27.822                : en:A Private War
    01:08:43.578                : en:Feeding Time
    01:11:41.172                : en:Two Killers
    01:17:17.049                : en:Good News & Bad News
    01:22:48.005                : en:Running the Surface
    01:29:03.129                : en:The Big Heat
    01:32:40.472                : en:The Better Killer
    01:41:11.649                : en:This Is Your Chance
    01:44:26.218                : en:What Are the Odds?
    01:48:13.195                : en:The Enemy Within
    01:53:16.581                : en:Convert or Fall
    01:57:00.680                : en:The Soul of a Furyan
    01:59:58.691                : en:Kill the Beast
    02:03:03.751                : en:At the Feet of an Outlaw
    02:04:06.064                : en:End Titles

  • Peso: 7.20 GB

Sinopsis

Descargar Las Crónicas De Riddick (2004) UNRATED Full HD 1080p Latino. Riddick se ha pasado los últimos cinco años vagando por la galaxia, tratando de huir de los mercenarios que lo buscan. Ahora se encuentra en el planeta Helion, hogar de una sociedad progresista y multicultural que ha sido invadida por Lord Marshal, un déspota que tiene sometidos a los seres humanos gracias a su ejército de guerreros, los Necromongers.

RESUBIDO, NUEVO RIP VERSION PLACEBO!

Ficha técnica

Video trailer de la película

Enlaces de descarga

Rip de Bluray

Descargar Las Crónicas De Riddick (2004) UNRATED Full HD 1080p Latino




Aportes de DPeliculasHDmega la pass es:dpeliculashdmega.org Aportes de CinemaniaHD la pass es:cinemaniahdd.com

Películas relacionadas

  • Hanna (2011) 1080p Latino

    Hanna (2011) 1080p Latino

    2011
    Hanna (2011) 1080p Latino

    0.0 1h 51m 2011

    Descargar Hanna (2011) 1080p Latino. Hanna tiene 16 años. Es brillante, curiosa y una devota hija. Excepcionalmente,...

    Director: Sheila Paige

    Género: Acción

    Actores: Vincent Montuel

  • Hanna (2011) Full HD 1080p Latino

    Hanna (2011) Full HD 1080p Latino

    2011
    Hanna (2011) Full HD 1080p Latino

    5.0 1h 51m 2011

    Descargar Hanna (2011) Full HD 1080p Latino. Hanna tiene 16 años. Es brillante, curiosa y una devota...

    Director: Sheila Paige

    Género: Acción

    Actores: Vincent Montuel

  • Hanna (2011) REMUX 1080p Latino

    Hanna (2011) REMUX 1080p Latino

    2011
    Hanna (2011) REMUX 1080p Latino

    5.0 1h 51m 2011

    Descargar Hanna (2011) REMUX 1080p Latino. Hanna tiene 16 años. Es brillante, curiosa y una devota hija....

    Director: Sheila Paige

    Género: Acción

    Actores: Vincent Montuel

  • Looper: Asesino Del Futuro (2012) 1080p Latino

    Looper: Asesino Del Futuro (2012) 1080p Latino

    2012
    Looper: Asesino Del Futuro (2012) 1080p Latino

    0.0 1h 58m 2012

    Descargar Looper: Asesino Del Futuro (2012) 1080p Latino. Como en 2072 los asesinatos están terminantemente...

    Director: Samuel W. Sullivan

    Género: Acción

    Actores: Xu Qing

Comentarios 2