×

¿Problemas para descargar con Mozilla, EDGE? Deshabilita la opción "Abrir vinculos en una pestaña nueva" tal como lo muestra ésta imagen.

The Christmas Train (2017) AMZN WEB-DL 1080p Latino

117 vistas

Información de The Christmas Train (2017) AMZN WEB-DL 1080p Latino

Datos de la película

  • Calidad: 1080p
  • Audio: Español Latino AC3 2.0 WEB-DL - Ingles AC3 2.0 WEB-DL
  • Subtitulos: Español Latino SRT
  • Resolución: 1920x1080
  • Formato: MKV
  • Codec: H.264
  • Encoder: cinemaniahdd
  • Mediainfo: Clic para Mostrar Datos Ver
  • The Christmas Train (2017) AMZN WEB-DL 1080p Latino [CNMNHDD].mkv
    Format                      : Matroska
    Format version              : Version 4
    File size                   : 5.32 GiB
    Duration                    : 1 h 38 min
    Overall bit rate            : 7 709 kb/s
    Movie name                  : The Christmas Train (2017) - CinemaniaHDD.Net
    Encoded date                : UTC 2021-11-02 00:05:30
    Writing application         : mkvmerge v59.0.0 ('Shining Star') 64-bit
    Writing library             : libebml v1.4.2 + libmatroska v1.6.4

    Video
    ID                          : 1
    Format                      : AVC
    Format/Info                 : Advanced Video Codec
    Format profile              : High@L4
    Format settings             : CABAC / 4 Ref Frames
    Format settings, CABAC      : Yes
    Format settings, Reference  : 4 frames
    Codec ID                    : V_MPEG4/ISO/AVC
    Duration                    : 1 h 38 min
    Bit rate mode               : Constant
    Bit rate                    : 7 259 kb/s
    Nominal bit rate            : 10 000 kb/s
    Width                       : 1 920 pixels
    Height                      : 1 080 pixels
    Display aspect ratio        : 16:9
    Frame rate mode             : Constant
    Frame rate                  : 23.976 (24000/1001) FPS
    Color space                 : YUV
    Chroma subsampling          : 4:2:0
    Bit depth                   : 8 bits
    Scan type                   : Progressive
    Bits/(Pixel*Frame)          : 0.146
    Stream size                 : 5.01 GiB (94%)
    Title                       : CinemaniaHDD
    Default                     : Yes
    Forced                      : No
    Color range                 : Limited
    Color primaries             : BT.709
    Transfer characteristics    : BT.709
    Matrix coefficients         : BT.709

    Audio #1
    ID                          : 2
    Format                      : E-AC-3
    Format/Info                 : Enhanced AC-3
    Commercial name             : Dolby Digital Plus
    Codec ID                    : A_EAC3
    Duration                    : 1 h 38 min
    Bit rate mode               : Constant
    Bit rate                    : 224 kb/s
    Channel(s)                  : 2 channels
    Channel layout              : L R
    Sampling rate               : 48.0 kHz
    Frame rate                  : 31.250 FPS (1536 SPF)
    Compression mode            : Lossy
    Stream size                 : 158 MiB (3%)
    Title                       : Español latino [CinemaniaHDD]
    Language                    : Spanish
    Service kind                : Complete Main
    Default                     : Yes
    Forced                      : No

    Audio #2
    ID                          : 3
    Format                      : E-AC-3
    Format/Info                 : Enhanced AC-3
    Commercial name             : Dolby Digital Plus
    Codec ID                    : A_EAC3
    Duration                    : 1 h 38 min
    Bit rate mode               : Constant
    Bit rate                    : 224 kb/s
    Channel(s)                  : 2 channels
    Channel layout              : L R
    Sampling rate               : 48.0 kHz
    Frame rate                  : 31.250 FPS (1536 SPF)
    Compression mode            : Lossy
    Stream size                 : 158 MiB (3%)
    Title                       : Inglés [CinemaniaHDD]
    Language                    : English
    Service kind                : Complete Main
    Default                     : No
    Forced                      : No

    Text
    ID                          : 4
    Format                      : UTF-8
    Codec ID                    : S_TEXT/UTF8
    Codec ID/Info               : UTF-8 Plain Text
    Duration                    : 1 h 38 min
    Bit rate                    : 64 b/s
    Count of elements           : 1267
    Stream size                 : 46.2 KiB (0%)
    Title                       : Español latino [CinemaniaHDD]
    Language                    : Spanish
    Default                     : No
    Forced                      : No

     

  • Peso: 5.32 GiB

Sinopsis

En «The Christmas Train», el periodista desilusionado y trotamundos Tom Langdon (Dermot Mulroney) debe viajar desde Washington, DC a Los Angeles a tiempo para Navidad. Obligado a tomar el viaje intercontinental en tren, y decidido a contar su aventura, Tom se encuentra en el oeste con una variedad de personajes. En el tren está el renombrado productor de cine Max (Danny Glover), la doctora y protectora de Max, Eleanor (Kimberly Williams Paisley) y Agnes (Joan Cusack) que ocupa la cabina opuesta a la de Tom y parece conocer mejor su negocio que él. Mientras que todos los pasajeros del tren navideño parecen dirigirse al mismo destino, Tom no tiene idea de que las locomotoras resistentes que transitarán por Estados Unidos se desviarán directamente a su corazón: en toscos despertares, en sus sueños y esperanzas más salvajes y en la oportunidad por amor, Tom pensó que se había perdido para siempre.

Ficha técnica

Video trailer de la película

Enlaces de descarga

Rip de Bluray

Descargar The Christmas Train (2017) AMZN WEB-DL 1080p Latino




Aportes de DPeliculasHDmega la pass es:dpeliculashdmega.org Aportes de CinemaniaHD la pass es:cinemaniahdd.com
Guardado en : Drama , Familia , Película de TV , Romance

Películas relacionadas

descargar The Christmas Train (2017) AMZN WEB-DL 1080p Latino 1080p 1080p gratis, The Christmas Train (2017) AMZN WEB-DL 1080p Latino 1080p mega 1 link, The Christmas Train (2017) AMZN WEB-DL 1080p Latino 1080p pelicula completa, descargar The Christmas Train (2017) AMZN WEB-DL 1080p Latino 1080p gratis en mega.

The Christmas Train (2017) AMZN WEB-DL 1080p Latino pelicula full hd, The Christmas Train (2017) AMZN WEB-DL 1080p Latino mega latino, The Christmas Train (2017) AMZN WEB-DL 1080p Latino 4k latino, The Christmas Train (2017) AMZN WEB-DL 1080p Latino pelicula completa, The Christmas Train (2017) AMZN WEB-DL 1080p Latino descargar gratis, descargar The Christmas Train (2017) AMZN WEB-DL 1080p Latino pelicula latino, The Christmas Train (2017) AMZN WEB-DL 1080p Latino 1 link mega, The Christmas Train (2017) AMZN WEB-DL 1080p Latino 1 link google drive, The Christmas Train (2017) AMZN WEB-DL 1080p Latino hd 1080p latino.
Comentarios 0