×

¿Problemas para descargar con Mozilla, EDGE? Deshabilita la opción "Abrir vinculos en una pestaña nueva" tal como lo muestra ésta imagen.

The Chorus (2004) REMUX 1080p Latino – CMHDD

118 vistas

Información de The Chorus (2004) REMUX 1080p Latino – CMHDD

Datos de la película

  • Calidad: Full 1080p
  • Audio: Se especifica abajo de la Sinopsis
  • Subtitulos: Español Latino PGS
  • Resolución: 1920x1080p
  • Formato: MKV
  • Codec: H.264
  • Encoder: Dracarys
  • Mediainfo: Clic para Mostrar Datos Ver
  • Format                      : Matroska
    Format version              : Version 4
    File size                   : 20.0 GiB
    Duration                    : 1 h 36 min
    Overall bit rate mode       : Variable
    Overall bit rate            : 29.6 Mb/s
    Movie name                  : The Chorus (2004) REMUX 1080p Latino - CMHDD
    Encoded date                : UTC 2021-06-25 03:41:42
    Writing application         : mkvmerge v56.1.0 ('My Friend') 64-bit
    Writing library             : libebml v1.4.2 + libmatroska v1.6.4

    Video
    ID                          : 1
    ID in the original source m : 4113 (0x1011)
    Format                      : AVC
    Format/Info                 : Advanced Video Codec
    Format profile              : High@L4.1
    Format settings             : CABAC / 4 Ref Frames
    Format settings, CABAC      : Yes
    Format settings, Reference  : 4 frames
    Codec ID                    : V_MPEG4/ISO/AVC
    Duration                    : 1 h 36 min
    Bit rate mode               : Variable
    Bit rate                    : 27.3 Mb/s
    Maximum bit rate            : 36.0 Mb/s
    Width                       : 1 920 pixels
    Height                      : 1 080 pixels
    Display aspect ratio        : 16:9
    Frame rate mode             : Constant
    Frame rate                  : 24.000 FPS
    Standard                    : NTSC
    Color space                 : YUV
    Chroma subsampling          : 4:2:0
    Bit depth                   : 8 bits
    Scan type                   : Progressive
    Bits/(Pixel*Frame)          : 0.549
    Stream size                 : 18.4 GiB (92%)
    Default                     : Yes
    Forced                      : No
    Color range                 : Limited
    Color primaries             : BT.709
    Transfer characteristics    : BT.709
    Matrix coefficients         : BT.709
    Original source medium      : Blu-ray

    Audio #1
    ID                          : 2
    ID in the original source m : 4353 (0x1101)
    Format                      : AC-3
    Format/Info                 : Audio Coding 3
    Commercial name             : Dolby Digital
    Codec ID                    : A_AC3
    Duration                    : 1 h 36 min
    Bit rate mode               : Constant
    Bit rate                    : 192 kb/s
    Channel(s)                  : 2 channels
    Channel layout              : L R
    Sampling rate               : 48.0 kHz
    Frame rate                  : 31.250 FPS (1536 SPF)
    Compression mode            : Lossy
    Stream size                 : 133 MiB (1%)
    Language                    : Spanish
    Service kind                : Complete Main
    Default                     : Yes
    Forced                      : No
    Original source medium      : Blu-ray

    Audio #2
    ID                          : 3
    ID in the original source m : 4352 (0x1100)
    Format                      : DTS XBR
    Format/Info                 : Digital Theater Systems
    Commercial name             : DTS-HD High Resolution Audio
    Codec ID                    : A_DTS
    Duration                    : 1 h 36 min
    Bit rate mode               : Constant
    Bit rate                    : 2 046 kb/s
    Channel(s)                  : 6 channels
    Channel layout              : C L R Ls Rs LFE
    Sampling rate               : 48.0 kHz
    Frame rate                  : 93.750 FPS (512 SPF)
    Bit depth                   : 24 bits
    Compression mode            : Lossy
    Stream size                 : 1.38 GiB (7%)
    Language                    : French
    Default                     : No
    Forced                      : No
    Original source medium      : Blu-ray

    Text
    ID                          : 4
    ID in the original source m : 4608 (0x1200)
    Format                      : PGS
    Muxing mode                 : zlib
    Codec ID                    : S_HDMV/PGS
    Codec ID/Info               : Picture based subtitle format used on BDs/HD-DVDs
    Duration                    : 1 h 32 min
    Bit rate                    : 47.3 kb/s
    Count of elements           : 2210
    Stream size                 : 31.2 MiB (0%)
    Language                    : Spanish
    Default                     : Yes
    Forced                      : No
    Original source medium      : Blu-ray

    Menu
    00:00:00.000                : Chapter 01
    00:05:00.000                : Chapter 02
    00:10:00.000                : Chapter 03
    00:15:00.000                : Chapter 04
    00:20:00.000                : Chapter 05
    00:25:00.000                : Chapter 06
    00:30:00.000                : Chapter 07
    00:35:00.000                : Chapter 08
    00:40:00.000                : Chapter 09
    00:45:00.000                : Chapter 10
    00:50:00.000                : Chapter 11
    00:55:00.000                : Chapter 12
    01:00:00.000                : Chapter 13
    01:05:00.000                : Chapter 14
    01:10:00.000                : Chapter 15
    01:15:00.000                : Chapter 16
    01:20:00.000                : Chapter 17
    01:25:00.000                : Chapter 18
    01:30:00.000                : Chapter 19
    01:35:00.000                : Chapter 20

  • Peso: 20.0 GiB

Sinopsis

En 1948 Clément Mathieu, profesor de música desempleado, acepta un puesto como profesor vigilante en un internado de reeducación de menores. El sistema represivo aplicado por el director conmociona a Mathieu. Enseñándoles música y canto coral a estos niños tan difíciles, Mathieu transformará sus vidas cotidianas.

 

Latino: AC3 2.0  –  Francés: DTS-HD MA 5.1

Ficha técnica

Video trailer de la película

Enlaces de descarga

Rip de Bluray

Descargar The Chorus (2004) REMUX 1080p Latino – CMHDD


Aportes de DPeliculasHDmega la pass es:dpeliculashdmega.org Aportes de CinemaniaHD la pass es:cinemaniahdd.com
Guardado en : Drama

Películas relacionadas

  • Togo (2022) NF WEB-DL 1080p Latino

    Togo (2022) NF WEB-DL 1080p Latino

    2022
    Togo (2022) NF WEB-DL 1080p Latino

    1h 35m 2022

    Descargar Togo (2022) NF WEB-DL 1080p Latino. Los narcos de poca monta están copando las calles de Montevideo...

    Director: Adrián Caetano

    Género: Crimen

    Actores: Tito Prieto

  • El Ultimo Juego (2021) WEB-DL 1080p Latino

    El Ultimo Juego (2021) WEB-DL 1080p Latino

    2021
    El Ultimo Juego (2021) WEB-DL 1080p Latino

    1h 21m 2021

    Descargar El Ultimo Juego (2021) WEB-DL 1080p Latino. 6 extraños se despiertan dentro de una habitación...

    Director: John David Moffat IV

    Género: Drama

    Actores: Yasmin Irvine

descargar The Chorus (2004) REMUX 1080p Latino – CMHDD Full 1080p 1080p gratis, The Chorus (2004) REMUX 1080p Latino – CMHDD Full 1080p mega 1 link, The Chorus (2004) REMUX 1080p Latino – CMHDD Full 1080p pelicula completa, descargar The Chorus (2004) REMUX 1080p Latino – CMHDD Full 1080p gratis en mega.

The Chorus (2004) REMUX 1080p Latino – CMHDD pelicula full hd, The Chorus (2004) REMUX 1080p Latino – CMHDD mega latino, The Chorus (2004) REMUX 1080p Latino – CMHDD 4k latino, The Chorus (2004) REMUX 1080p Latino – CMHDD pelicula completa, The Chorus (2004) REMUX 1080p Latino – CMHDD descargar gratis, descargar The Chorus (2004) REMUX 1080p Latino – CMHDD pelicula latino, The Chorus (2004) REMUX 1080p Latino – CMHDD 1 link mega, The Chorus (2004) REMUX 1080p Latino – CMHDD 1 link google drive, The Chorus (2004) REMUX 1080p Latino – CMHDD hd 1080p latino.
Comentarios 0