×

¿Problemas para descargar con Mozilla, EDGE? Deshabilita la opción "Abrir vinculos en una pestaña nueva" tal como lo muestra ésta imagen.

El llamado salvaje (2020) 1080p Latino

503 vistas

Información de El llamado salvaje (2020) 1080p Latino

Datos de la película

  • Calidad: 1080p
  • Audio: Español Latino AC3 5.1 BLURAY - Ingles AC3 5.1 BLURAY
  • Subtitulos: Español Latino SRT- FORZADOS SRT
  • Resolución: 1920x804p
  • Formato: MKV
  • Codec: H.264
  • Encoder: CinemaniaHD
  • Mediainfo: Clic para Mostrar Datos Ver
  • El Llamado Salvaje (2020) 1080p Latino.mkv
    Format                      : Matroska
    Format version              : Version 4
    File size                   : 3.17 GiB
    Duration                    : 1 h 39 min
    Overall bit rate            : 4 555 kb/s
    Movie name                  : The Call Of The Wild (2020) CinemaniaHDD.Net
    Encoded date                : UTC 2020-05-02 06:38:50
    Writing application         : mkvmerge v42.0.0 ('Overtime') 64-bit
    Writing library             : libebml v1.3.10 + libmatroska v1.5.2
    Attachments                 : CINEMANIAHD.png

    Video
    ID                          : 1
    Format                      : AVC
    Format/Info                 : Advanced Video Codec
    Format profile              : High@L4.1
    Format settings             : CABAC / 5 Ref Frames
    Format settings, CABAC      : Yes
    Format settings, ReFrames   : 5 frames
    Codec ID                    : V_MPEG4/ISO/AVC
    Duration                    : 1 h 39 min
    Bit rate                    : 3 500 kb/s
    Width                       : 1 920 pixels
    Height                      : 804 pixels
    Display aspect ratio        : 2.40:1
    Frame rate mode             : Constant
    Frame rate                  : 23.976 (24000/1001) FPS
    Color space                 : YUV
    Chroma subsampling          : 4:2:0
    Bit depth                   : 8 bits
    Scan type                   : Progressive
    Bits/(Pixel*Frame)          : 0.095
    Stream size                 : 2.41 GiB (76%)
    Title                       : HD1080p [CinemaniaHDD]
    Writing library             : x264 core 157 r2935 545de2f
    Encoding settings           : cabac=1 / ref=5 / deblock=1:-2:-2 / analyse=0x3:0x113 / me=hex / subme=8 / psy=1 / psy_rd=1.00:0.25 / mixed_ref=1 / me_range=16 / chroma_me=1 / trellis=2 / 8x8dct=1 / cqm=0 / deadzone=6,6 / fast_pskip=1 / chroma_qp_offset=-4 / threads=25 / lookahead_threads=4 / sliced_threads=0 / nr=0 / decimate=0 / interlaced=0 / bluray_compat=0 / constrained_intra=0 / bframes=3 / b_pyramid=2 / b_adapt=1 / b_bias=0 / direct=3 / weightb=1 / open_gop=0 / weightp=2 / keyint=240 / keyint_min=24 / scenecut=40 / intra_refresh=0 / rc_lookahead=50 / rc=abr / mbtree=1 / bitrate=3500 / ratetol=1.0 / qcomp=0.80 / qpmin=0 / qpmax=69 / qpstep=4 / vbv_maxrate=62500 / vbv_bufsize=78125 / nal_hrd=none / filler=0 / ip_ratio=1.10 / aq=1:0.50
    Default                     : Yes
    Forced                      : No
    Color range                 : Limited
    Color primaries             : BT.709
    Transfer characteristics    : BT.709
    Matrix coefficients         : BT.709

    Audio #1
    ID                          : 2
    Format                      : AC-3
    Format/Info                 : Audio Coding 3
    Commercial name             : Dolby Digital
    Codec ID                    : A_AC3
    Duration                    : 1 h 39 min
    Bit rate mode               : Constant
    Bit rate                    : 640 kb/s
    Channel(s)                  : 6 channels
    Channel layout              : L R C LFE Ls Rs
    Sampling rate               : 48.0 kHz
    Frame rate                  : 31.250 FPS (1536 SPF)
    Bit depth                   : 16 bits
    Compression mode            : Lossy
    Delay relative to video     : -5 ms
    Stream size                 : 456 MiB (14%)
    Title                       : Español Latino [CinemaniaHDD]
    Language                    : Spanish
    Service kind                : Complete Main
    Default                     : Yes
    Forced                      : Yes

    Audio #2
    ID                          : 3
    Format                      : AC-3
    Format/Info                 : Audio Coding 3
    Commercial name             : Dolby Digital
    Codec ID                    : A_AC3
    Duration                    : 1 h 39 min
    Bit rate mode               : Constant
    Bit rate                    : 448 kb/s
    Channel(s)                  : 6 channels
    Channel layout              : L R C LFE Ls Rs
    Sampling rate               : 48.0 kHz
    Frame rate                  : 31.250 FPS (1536 SPF)
    Bit depth                   : 16 bits
    Compression mode            : Lossy
    Delay relative to video     : -5 ms
    Stream size                 : 319 MiB (10%)
    Title                       : Ingles [CinemaniaHDD]
    Language                    : English
    Service kind                : Complete Main
    Default                     : No
    Forced                      : No

    Text #1
    ID                          : 4
    Format                      : UTF-8
    Codec ID                    : S_TEXT/UTF8
    Codec ID/Info               : UTF-8 Plain Text
    Duration                    : 1 h 30 min
    Bit rate                    : 0 b/s
    Count of elements           : 3
    Stream size                 : 74.0 Bytes (0%)
    Title                       : Forzados-SRT [CinemaniaHDD]
    Language                    : Spanish
    Default                     : Yes
    Forced                      : No

    Text #2
    ID                          : 5
    Format                      : UTF-8
    Codec ID                    : S_TEXT/UTF8
    Codec ID/Info               : UTF-8 Plain Text
    Duration                    : 1 h 31 min
    Bit rate                    : 24 b/s
    Count of elements           : 761
    Stream size                 : 16.4 KiB (0%)
    Title                       : Español-SRT [CinemaniaHDD]
    Language                    : Spanish
    Default                     : No
    Forced                      : No

    Text #3
    ID                          : 6
    Format                      : UTF-8
    Codec ID                    : S_TEXT/UTF8
    Codec ID/Info               : UTF-8 Plain Text
    Duration                    : 1 h 34 min
    Bit rate                    : 25 b/s
    Count of elements           : 846
    Stream size                 : 17.8 KiB (0%)
    Title                       : Ingles-SRT [CinemaniaHDD]
    Language                    : English
    Default                     : No
    Forced                      : No

    Menu
    00:00:00.000                : :Chapter 1
    00:03:35.882                : :Chapter 2
    00:05:58.608                : :Chapter 3
    00:10:31.339                : :Chapter 4
    00:15:49.699                : :Chapter 5
    00:19:03.893                : :Chapter 6
    00:23:29.533                : :Chapter 7
    00:27:28.355                : :Chapter 8
    00:32:27.821                : :Chapter 9
    00:34:32.529                : :Chapter 10
    00:41:43.793                : :Chapter 11
    00:46:14.522                : :Chapter 12
    00:50:07.338                : :Chapter 13
    00:55:15.562                : :Chapter 14
    01:00:30.919                : :Chapter 15
    01:04:04.674                : :Chapter 16
    01:07:46.980                : :Chapter 17
    01:12:38.563                : :Chapter 18
    01:17:02.952                : :Chapter 19
    01:19:25.219                : :Chapter 20
    01:23:07.107                : :Chapter 21
    01:26:21.385                : :Chapter 22
    01:29:26.194                : :Chapter 23
    01:32:22.620                : :Chapter 24

  • Peso: 3.17 GiB

Sinopsis

Cuenta la historia de Buck, un perro bonachón cuya vida cambia de la noche a la mañana cuando su dueño se muda de California a los exóticos parajes de Alaska durante la Fiebre del Oro a finales del s. XIX. Como novato de un grupo perros de trineo (y posteriormente su líder), Buck experimenta una aventura que jamás olvidará, encontrando su lugar en el mundo y convirtiéndose así en su propio amo.

Ficha técnica

Video trailer de la película

Enlaces de descarga

Rip de Bluray

Descargar El llamado salvaje (2020) 1080p Latino




Aportes de DPeliculasHDmega la pass es:dpeliculashdmega.org Aportes de CinemaniaHD la pass es:cinemaniahdd.com
Guardado en : Aventura , Drama , Familia , HD 1080p

Películas relacionadas

  • Wire Room (2022) HD 1080p Latino

    Wire Room (2022) HD 1080p Latino

    2022
    Wire Room (2022) HD 1080p Latino

    1h 37m 2022

    Descargar Wire Room (2022) HD 1080p Latino. Mientras está de servicio en la sala de cables, un agente...

    Director: Matt Eskandari

    Género: Acción

    Actores: Texas Battle

  • Alarido (2022) HD 1080p Latino

    Alarido (2022) HD 1080p Latino

    2022
    Alarido (2022) HD 1080p Latino

    1h 29m 2022

    Descargar Alarido (2022) HD 1080p Latino. Una joven madre soltera es cautiva junto con sus dos hijos...

    Director: D.J. Caruso

    Género: HD 1080p

    Actores: Vincent Gallo

  • After: Amor infinito (2022) AMZN WEB-DL 1080p Latino

    After: Amor infinito (2022) AMZN WEB-DL 1080p Latino

    2022
    After: Amor infinito (2022) AMZN WEB-DL 1080p Latino

    1h 35m 2022

    Descargar After: Amor infinito (2022) AMZN WEB-DL 1080p Latino. El amor de Tessa y Hardin nunca ha sido...

    Director: Castille Landon

    Género: Drama

    Actores: Velizar Nikolaev Biney

descargar El llamado salvaje (2020) 1080p Latino 1080p 1080p gratis, El llamado salvaje (2020) 1080p Latino 1080p mega 1 link, El llamado salvaje (2020) 1080p Latino 1080p pelicula completa, descargar El llamado salvaje (2020) 1080p Latino 1080p gratis en mega.

El llamado salvaje (2020) 1080p Latino pelicula full hd, El llamado salvaje (2020) 1080p Latino mega latino, El llamado salvaje (2020) 1080p Latino 4k latino, El llamado salvaje (2020) 1080p Latino pelicula completa, El llamado salvaje (2020) 1080p Latino descargar gratis, descargar El llamado salvaje (2020) 1080p Latino pelicula latino, El llamado salvaje (2020) 1080p Latino 1 link mega, El llamado salvaje (2020) 1080p Latino 1 link google drive, El llamado salvaje (2020) 1080p Latino hd 1080p latino.
Comentarios 0