×

¿Problemas para descargar con Mozilla, EDGE? Deshabilita la opción "Abrir vinculos en una pestaña nueva" tal como lo muestra ésta imagen.

El llamado salvaje (2020) Full HD 1080p Latino

503 vistas

Información de El llamado salvaje (2020) Full HD 1080p Latino

Datos de la película

  • Calidad: Full 1080p
  • Audio: Español Latino AC3 5.1 BLURAY - Ingles DTS 5.1 BLURAY
  • Subtitulos: Español Latino PGS - Ingles PGS
  • Resolución: 1920x1080p
  • Formato: MKV
  • Codec: H.264
  • Encoder: CinefiloCool
  • Mediainfo: Clic para Mostrar Datos Ver
  • El Llamado Salvaje (2020) Full HD 1080p Latino-CMHDD.mkv
    Format                      : Matroska
    Format version              : Version 4
    File size                   : 4.54 GiB
    Duration                    : 1 h 39 min
    Overall bit rate            : 6 523 kb/s
    Movie name                  : The Call Of The Wild (2020) CinemaniaHDD.Net
    Encoded date                : UTC 2020-05-05 04:27:51
    Writing application         : mkvmerge v42.0.0 ('Overtime') 64-bit
    Writing library             : libebml v1.3.10 + libmatroska v1.5.2
    Attachments                 : CINEMANIAHD.png

    Video
    ID                          : 1
    Format                      : AVC
    Format/Info                 : Advanced Video Codec
    Format profile              : High@L4.1
    Format settings             : CABAC / 4 Ref Frames
    Format settings, CABAC      : Yes
    Format settings, ReFrames   : 4 frames
    Codec ID                    : V_MPEG4/ISO/AVC
    Duration                    : 1 h 39 min
    Bit rate                    : 4 357 kb/s
    Width                       : 1 920 pixels
    Height                      : 1 080 pixels
    Display aspect ratio        : 16:9
    Frame rate mode             : Constant
    Frame rate                  : 23.976 (24000/1001) FPS
    Color space                 : YUV
    Chroma subsampling          : 4:2:0
    Bit depth                   : 8 bits
    Scan type                   : Progressive
    Bits/(Pixel*Frame)          : 0.088
    Stream size                 : 3.03 GiB (67%)
    Title                       : Full HD1080p [CinemaniaHDD]
    Writing library             : x264 core 157 r2935 545de2f
    Encoding settings           : cabac=1 / ref=4 / deblock=1:0:0 / analyse=0x3:0x133 / me=tesa / subme=11 / psy=1 / psy_rd=1.00:0.00 / mixed_ref=1 / me_range=24 / chroma_me=1 / trellis=2 / 8x8dct=1 / cqm=0 / deadzone=21,11 / fast_pskip=0 / chroma_qp_offset=-2 / threads=34 / lookahead_threads=8 / sliced_threads=0 / nr=0 / decimate=1 / interlaced=0 / bluray_compat=0 / constrained_intra=0 / bframes=16 / b_pyramid=2 / b_adapt=2 / b_bias=0 / direct=3 / weightb=1 / open_gop=0 / weightp=2 / keyint=240 / keyint_min=24 / scenecut=40 / intra_refresh=0 / rc_lookahead=60 / rc=crf / mbtree=1 / crf=19.0 / qcomp=0.60 / qpmin=0 / qpmax=69 / qpstep=4 / vbv_maxrate=62500 / vbv_bufsize=78125 / crf_max=0.0 / nal_hrd=none / filler=0 / ip_ratio=1.40 / aq=1:1.00
    Default                     : Yes
    Forced                      : Yes
    Color range                 : Limited
    Color primaries             : BT.709
    Transfer characteristics    : BT.709
    Matrix coefficients         : BT.709

    Audio #1
    ID                          : 2
    Format                      : AC-3
    Format/Info                 : Audio Coding 3
    Commercial name             : Dolby Digital
    Codec ID                    : A_AC3
    Duration                    : 1 h 39 min
    Bit rate mode               : Constant
    Bit rate                    : 640 kb/s
    Channel(s)                  : 6 channels
    Channel layout              : L R C LFE Ls Rs
    Sampling rate               : 48.0 kHz
    Frame rate                  : 31.250 FPS (1536 SPF)
    Bit depth                   : 16 bits
    Compression mode            : Lossy
    Stream size                 : 456 MiB (10%)
    Title                       : Español Latino [CinemaniaHDD]
    Language                    : Spanish
    Service kind                : Complete Main
    Default                     : Yes
    Forced                      : Yes

    Audio #2
    ID                          : 3
    Format                      : DTS ES
    Format/Info                 : Digital Theater Systems
    Commercial name             : DTS-ES Matrix
    Codec ID                    : A_DTS
    Duration                    : 1 h 39 min
    Bit rate mode               : Constant
    Bit rate                    : 1 509 kb/s
    Channel(s)                  : 6 channels
    Channel(s)_Original         : 7 channels
    Channel layout              : C L R Ls Rs Cb LFE
    Sampling rate               : 48.0 kHz
    Frame rate                  : 93.750 FPS (512 SPF)
    Bit depth                   : 24 bits
    Compression mode            : Lossy
    Stream size                 : 1.05 GiB (23%)
    Title                       : Ingles [CinemaniaHDD]
    Language                    : English
    Default                     : No
    Forced                      : No

    Text #1
    ID                          : 4
    Format                      : PGS
    Muxing mode                 : zlib
    Codec ID                    : S_HDMV/PGS
    Codec ID/Info               : Picture based subtitle format used on BDs/HD-DVDs
    Duration                    : 4 s 713 ms
    Bit rate                    : 24.8 kb/s
    Count of elements           : 2
    Stream size                 : 14.3 KiB (0%)
    Title                       : Forzados-PGS [CinemaniaHDD]
    Language                    : Spanish
    Default                     : Yes
    Forced                      : No

    Text #2
    ID                          : 5
    Format                      : PGS
    Muxing mode                 : zlib
    Codec ID                    : S_HDMV/PGS
    Codec ID/Info               : Picture based subtitle format used on BDs/HD-DVDs
    Duration                    : 1 h 38 min
    Bit rate                    : 14.1 kb/s
    Count of elements           : 1536
    Stream size                 : 9.95 MiB (0%)
    Title                       : Español-PGS [CinemaniaHDD]
    Language                    : Spanish
    Default                     : No
    Forced                      : No

    Text #3
    ID                          : 6
    Format                      : PGS
    Muxing mode                 : zlib
    Codec ID                    : S_HDMV/PGS
    Codec ID/Info               : Picture based subtitle format used on BDs/HD-DVDs
    Duration                    : 1 h 34 min
    Bit rate                    : 26.8 kb/s
    Count of elements           : 2500
    Stream size                 : 18.1 MiB (0%)
    Title                       : Ingles-PGS [CinemaniaHDD]
    Language                    : English
    Default                     : No
    Forced                      : No

    Text #4
    ID                          : 7
    Format                      : UTF-8
    Codec ID                    : S_TEXT/UTF8
    Codec ID/Info               : UTF-8 Plain Text
    Duration                    : 1 h 30 min
    Bit rate                    : 0 b/s
    Count of elements           : 3
    Stream size                 : 74.0 Bytes (0%)
    Title                       : Forzados-SRT [CinemaniaHDD]
    Language                    : Spanish
    Default                     : No
    Forced                      : No

    Text #5
    ID                          : 8
    Format                      : UTF-8
    Codec ID                    : S_TEXT/UTF8
    Codec ID/Info               : UTF-8 Plain Text
    Duration                    : 1 h 31 min
    Bit rate                    : 24 b/s
    Count of elements           : 761
    Stream size                 : 16.4 KiB (0%)
    Title                       : Español-SRT [CinemaniaHDD]
    Language                    : Spanish
    Default                     : No
    Forced                      : No

    Menu
    00:00:00.000                : en:Chapter 01
    00:03:35.882                : en:Chapter 02
    00:05:58.608                : en:Chapter 03
    00:10:31.339                : en:Chapter 04
    00:15:49.699                : en:Chapter 05
    00:19:03.851                : en:Chapter 06
    00:23:29.533                : en:Chapter 07
    00:27:28.355                : en:Chapter 08
    00:32:27.821                : en:Chapter 09
    00:34:32.529                : en:Chapter 10
    00:41:43.793                : en:Chapter 11
    00:46:14.522                : en:Chapter 12
    00:50:07.338                : en:Chapter 13
    00:55:15.562                : en:Chapter 14
    01:00:30.919                : en:Chapter 15
    01:04:04.632                : en:Chapter 16
    01:07:46.980                : en:Chapter 17
    01:12:38.563                : en:Chapter 18
    01:17:02.952                : en:Chapter 19
    01:19:25.219                : en:Chapter 20
    01:23:07.107                : en:Chapter 21
    01:26:21.218                : en:Chapter 22
    01:29:26.194                : en:Chapter 23
    01:32:22.620                : en:Chapter 24

  • Peso: 4.54 GiB

Sinopsis

Descargar El llamado salvaje (2020) Full HD 1080p Latino. Cuenta la historia de Buck, un perro bonachón cuya vida cambia de la noche a la mañana cuando su dueño se muda de California a los exóticos parajes de Alaska durante la Fiebre del Oro a finales del s. XIX. Como novato de un grupo perros de trineo (y posteriormente su líder), Buck experimenta una aventura que jamás olvidará, encontrando su lugar en el mundo y convirtiéndose así en su propio amo.

Ficha técnica

Video trailer de la película

Enlaces de descarga

Rip de Bluray

Descargar El llamado salvaje (2020) Full HD 1080p Latino




Aportes de DPeliculasHDmega la pass es:dpeliculashdmega.org Aportes de CinemaniaHD la pass es:cinemaniahdd.com

Películas relacionadas

descargar El llamado salvaje (2020) Full HD 1080p Latino Full 1080p 1080p gratis, El llamado salvaje (2020) Full HD 1080p Latino Full 1080p mega 1 link, El llamado salvaje (2020) Full HD 1080p Latino Full 1080p pelicula completa, descargar El llamado salvaje (2020) Full HD 1080p Latino Full 1080p gratis en mega.

El llamado salvaje (2020) Full HD 1080p Latino pelicula full hd, El llamado salvaje (2020) Full HD 1080p Latino mega latino, El llamado salvaje (2020) Full HD 1080p Latino 4k latino, El llamado salvaje (2020) Full HD 1080p Latino pelicula completa, El llamado salvaje (2020) Full HD 1080p Latino descargar gratis, descargar El llamado salvaje (2020) Full HD 1080p Latino pelicula latino, El llamado salvaje (2020) Full HD 1080p Latino 1 link mega, El llamado salvaje (2020) Full HD 1080p Latino 1 link google drive, El llamado salvaje (2020) Full HD 1080p Latino hd 1080p latino.
Comentarios 0