×

¿Problemas para descargar con Mozilla, EDGE? Deshabilita la opción "Abrir vinculos en una pestaña nueva" tal como lo muestra ésta imagen.

El llamado salvaje (2020) 4K UHD HDR Latino

567 vistas

Información de El llamado salvaje (2020) 4K UHD HDR Latino

Datos de la película

  • Calidad: 4K HDR
  • Audio: Se especifica abajo de la Sinopsis
  • Subtitulos: Español Latino PGS - Ingles PGS
  • Resolución: 3840x1604p
  • Formato: MKV
  • Codec: HEVC
  • Encoder: CinefiloCool
  • Mediainfo: Clic para Mostrar Datos Ver
  • El Llamado Salvaje (2020) UHD HDR Latino-CMHDD.mkv
    Format                      : Matroska
    Format version              : Version 4
    File size                   : 16.7 GiB
    Duration                    : 1 h 39 min
    Overall bit rate mode       : Variable
    Overall bit rate            : 24.0 Mb/s
    Movie name                  : The Call Of The Wild (2020) CinemaniaHDD.Net
    Encoded date                : UTC 2020-05-07 04:12:21
    Writing application         : mkvmerge v46.0.0 ('No Deeper Escape') 64-bit
    Writing library             : libebml v1.3.10 + libmatroska v1.5.2
    Attachments                 : CINEMANIAHD.png

    Video
    ID                          : 1
    Format                      : HEVC
    Format/Info                 : High Efficiency Video Coding
    Format profile              : Main 10@L5.1@High
    HDR format                  : SMPTE ST 2086, HDR10 compatible
    Codec ID                    : V_MPEGH/ISO/HEVC
    Duration                    : 1 h 39 min
    Bit rate                    : 13.5 Mb/s
    Width                       : 3 840 pixels
    Height                      : 1 604 pixels
    Display aspect ratio        : 2.40:1
    Frame rate mode             : Constant
    Frame rate                  : 23.976 (24000/1001) FPS
    Color space                 : YUV
    Chroma subsampling          : 4:2:0 (Type 2)
    Bit depth                   : 10 bits
    Bits/(Pixel*Frame)          : 0.092
    Stream size                 : 9.43 GiB (56%)
    Title                       : 2160p HDR [Bluray]
    Writing library             : x265 3.3+21-6bb2d88029c2:[Windows][GCC 10.0.1][64 bit] 10bit
    Encoding settings           : cpuid=1176575 / frame-threads=5 / numa-pools=36 / wpp / no-pmode / no-pme / no-psnr / no-ssim / log-level=2 / input-csp=1 / input-res=3840x1604 / interlace=0 / total-frames=143404 / level-idc=51 / high-tier=1 / uhd-bd=0 / ref=4 / no-allow-non-conformance / repeat-headers / annexb / aud / hrd / info / hash=0 / no-temporal-layers / open-gop / min-keyint=23 / keyint=250 / gop-lookahead=0 / bframes=4 / b-adapt=2 / b-pyramid / bframe-bias=0 / rc-lookahead=25 / lookahead-slices=4 / scenecut=40 / hist-scenecut=0 / radl=0 / no-splice / no-intra-refresh / ctu=64 / min-cu-size=8 / rect / no-amp / max-tu-size=32 / tu-inter-depth=1 / tu-intra-depth=1 / limit-tu=0 / rdoq-level=2 / dynamic-rd=0.00 / no-ssim-rd / signhide / no-tskip / nr-intra=0 / nr-inter=0 / no-constrained-intra / strong-intra-smoothing / max-merge=3 / limit-refs=3 / limit-modes / me=3 / subme=3 / merange=57 / temporal-mvp / no-frame-dup / no-hme / weightp / no-weightb / no-analyze-src-pics / deblock=-3:-3 / no-sao / no-sao-non-deblock / rd=4 / selective-sao=0 / no-early-skip / rskip / no-fast-intra / no-tskip-fast / no-cu-lossless / no-b-intra / no-splitrd-skip / rdpenalty=0 / psy-rd=2.00 / psy-rdoq=1.00 / no-rd-refine / no-lossless / cbqpoffs=0 / crqpoffs=0 / rc=crf / crf=14.0 / qcomp=0.60 / qpstep=4 / stats-write=0 / stats-read=0 / vbv-maxrate=160000 / vbv-bufsize=160000 / vbv-init=0.9 / crf-max=0.0 / crf-min=0.0 / ipratio=1.40 / pbratio=1.30 / aq-mode=2 / aq-strength=1.00 / cutree / zone-count=0 / no-strict-cbr / qg-size=32 / no-rc-grain / qpmax=69 / qpmin=0 / no-const-vbv / sar=1 / overscan=0 / videoformat=5 / range=0 / colorprim=9 / transfer=16 / colormatrix=9 / chromaloc=1 / chromaloc-top=2 / chromaloc-bottom=2 / display-window=0 / master-display=G(8500,39850)B(6550,2300)R(35400,14600)WP(15635,16450)L(10000000,1) / cll=0,0 / min-luma=0 / max-luma=1023 / log2-max-poc-lsb=8 / vui-timing-info / vui-hrd-info / slices=1 / no-opt-qp-pps / no-opt-ref-list-length-pps / no-multi-pass-opt-rps / scenecut-bias=0.05 / hist-threshold=0.01 / no-opt-cu-delta-qp / no-aq-motion / hdr10 / hdr10-opt / no-dhdr10-opt / no-idr-recovery-sei / analysis-reuse-level=0 / analysis-save-reuse-level=0 / analysis-load-reuse-level=0 / scale-factor=0 / refine-intra=0 / refine-inter=0 / refine-mv=1 / refine-ctu-distortion=0 / no-limit-sao / ctu-info=0 / no-lowpass-dct / refine-analysis-type=0 / copy-pic=1 / max-ausize-factor=1.0 / no-dynamic-refine / no-single-sei / no-hevc-aq / no-svt / no-field / qp-adaptation-range=1.00 / no-scenecut-aware-qpconformance-window-offsets / right=0 / bottom=0 / decoder-max-rate=0
    Default                     : Yes
    Forced                      : Yes
    Color range                 : Limited
    Color primaries             : BT.2020
    Transfer characteristics    : PQ
    Matrix coefficients         : BT.2020 non-constant
    Mastering display color pri : BT.2020
    Mastering display luminance : min: 0.0001 cd/m2, max: 1000 cd/m2

    Audio #1
    ID                          : 2
    Format                      : E-AC-3
    Format/Info                 : Enhanced AC-3
    Commercial name             : Dolby Digital Plus
    Format profile              : Blu-ray Disc
    Codec ID                    : A_EAC3
    Duration                    : 1 h 39 min
    Bit rate mode               : Constant
    Bit rate                    : 1 024 kb/s
    Channel(s)                  : 8 channels
    Channel layout              : L R C LFE Ls Rs Lb Rb
    Sampling rate               : 48.0 kHz
    Frame rate                  : 31.250 FPS (1536 SPF)
    Compression mode            : Lossy
    Stream size                 : 730 MiB (4%)
    Title                       : DDP_7.1_Bluray_Esp
    Language                    : Spanish
    Service kind                : Complete Main
    Default                     : Yes
    Forced                      : Yes

    Audio #2
    ID                          : 3
    Format                      : MLP FBA 16-ch
    Format/Info                 : Meridian Lossless Packing FBA with 16-channel presentation
    Commercial name             : Dolby TrueHD with Dolby Atmos
    Codec ID                    : A_TRUEHD
    Duration                    : 1 h 39 min
    Bit rate mode               : Variable
    Bit rate                    : 8 045 kb/s
    Maximum bit rate            : 12.5 Mb/s
    Channel(s)                  : 8 channels
    Channel layout              : L R C LFE Ls Rs Lb Rb
    Sampling rate               : 48.0 kHz
    Frame rate                  : 1 200.000 FPS (40 SPF)
    Compression mode            : Lossless
    Stream size                 : 5.60 GiB (34%)
    Title                       : THD_7.1_Bluray_Eng
    Language                    : English
    Default                     : No
    Forced                      : No
    Number of dynamic objects   : 13
    Bed channel count           : 1 channel
    Bed channel configuration   : LFE

    Audio #3
    ID                          : 4
    Format                      : AC-3
    Format/Info                 : Audio Coding 3
    Commercial name             : Dolby Digital
    Codec ID                    : A_AC3
    Duration                    : 1 h 39 min
    Bit rate mode               : Constant
    Bit rate                    : 640 kb/s
    Channel(s)                  : 6 channels
    Channel layout              : L R C LFE Ls Rs
    Sampling rate               : 48.0 kHz
    Frame rate                  : 31.250 FPS (1536 SPF)
    Compression mode            : Lossy
    Stream size                 : 456 MiB (3%)
    Title                       : AC3_5.1_Bluray_Esp
    Language                    : Spanish
    Service kind                : Complete Main
    Default                     : No
    Forced                      : No

    Audio #4
    ID                          : 5
    Format                      : AC-3
    Format/Info                 : Audio Coding 3
    Commercial name             : Dolby Digital
    Codec ID                    : A_AC3
    Duration                    : 1 h 39 min
    Bit rate mode               : Constant
    Bit rate                    : 640 kb/s
    Channel(s)                  : 6 channels
    Channel layout              : L R C LFE Ls Rs
    Sampling rate               : 48.0 kHz
    Frame rate                  : 31.250 FPS (1536 SPF)
    Compression mode            : Lossy
    Stream size                 : 456 MiB (3%)
    Title                       : AC3_5.1_Bluray_Eng
    Language                    : English
    Service kind                : Complete Main
    Default                     : No
    Forced                      : No

    Text #1
    ID                          : 6
    Format                      : PGS
    Muxing mode                 : zlib
    Codec ID                    : S_HDMV/PGS
    Codec ID/Info               : Picture based subtitle format used on BDs/HD-DVDs
    Duration                    : 4 s 713 ms
    Bit rate                    : 24.7 kb/s
    Count of elements           : 2
    Stream size                 : 14.2 KiB (0%)
    Title                       : Sub_Forzados [PGS]
    Language                    : Spanish
    Default                     : No
    Forced                      : No

    Text #2
    ID                          : 7
    Format                      : PGS
    Muxing mode                 : zlib
    Codec ID                    : S_HDMV/PGS
    Codec ID/Info               : Picture based subtitle format used on BDs/HD-DVDs
    Duration                    : 1 h 38 min
    Bit rate                    : 14.3 kb/s
    Count of elements           : 1536
    Stream size                 : 10.1 MiB (0%)
    Title                       : Sub_Esp [PGS]
    Language                    : Spanish
    Default                     : No
    Forced                      : No

    Text #3
    ID                          : 8
    Format                      : PGS
    Muxing mode                 : zlib
    Codec ID                    : S_HDMV/PGS
    Codec ID/Info               : Picture based subtitle format used on BDs/HD-DVDs
    Duration                    : 1 h 34 min
    Bit rate                    : 26.7 kb/s
    Count of elements           : 2500
    Stream size                 : 18.1 MiB (0%)
    Title                       : Sub_Eng [PGS]
    Language                    : English
    Default                     : No
    Forced                      : No

    Text #4
    ID                          : 9
    Format                      : UTF-8
    Codec ID                    : S_TEXT/UTF8
    Codec ID/Info               : UTF-8 Plain Text
    Duration                    : 1 h 30 min
    Bit rate                    : 0 b/s
    Count of elements           : 3
    Stream size                 : 74.0 Bytes (0%)
    Title                       : Sub_Forzados
    Language                    : Spanish
    Default                     : Yes
    Forced                      : Yes

    Text #5
    ID                          : 10
    Format                      : UTF-8
    Codec ID                    : S_TEXT/UTF8
    Codec ID/Info               : UTF-8 Plain Text
    Duration                    : 1 h 31 min
    Bit rate                    : 24 b/s
    Count of elements           : 761
    Stream size                 : 16.4 KiB (0%)
    Title                       : Sub_Esp
    Language                    : Spanish
    Default                     : No
    Forced                      : No

    Menu
    00:00:00.000                : en:Chapter 01
    00:03:35.549                : en:Chapter 02
    00:05:58.275                : en:Chapter 03
    00:10:31.005                : en:Chapter 04
    00:15:49.365                : en:Chapter 05
    00:19:03.517                : en:Chapter 06
    00:23:29.199                : en:Chapter 07
    00:27:28.021                : en:Chapter 08
    00:32:27.487                : en:Chapter 09
    00:34:32.195                : en:Chapter 10
    00:41:43.459                : en:Chapter 11
    00:46:14.188                : en:Chapter 12
    00:50:07.004                : en:Chapter 13
    00:55:15.229                : en:Chapter 14
    01:00:30.585                : en:Chapter 15
    01:04:04.299                : en:Chapter 16
    01:07:46.646                : en:Chapter 17
    01:12:38.229                : en:Chapter 18
    01:17:02.618                : en:Chapter 19
    01:19:24.885                : en:Chapter 20
    01:23:06.773                : en:Chapter 21
    01:26:20.884                : en:Chapter 22
    01:29:25.860                : en:Chapter 23
    01:32:22.287                : en:Chapter 24

  • Peso: 16.7 GiB

Sinopsis

Descargar El llamado salvaje (2020) 4K UHD HDR Latino. Cuenta la historia de Buck, un perro bonachón cuya vida cambia de la noche a la mañana cuando su dueño se muda de California a los exóticos parajes de Alaska durante la Fiebre del Oro a finales del s. XIX. Como novato de un grupo perros de trineo (y posteriormente su líder), Buck experimenta una aventura que jamás olvidará, encontrando su lugar en el mundo y convirtiéndose así en su propio amo.

Audio Español Latino EAC3 7.1 + Core AC3 5.1 Bluray – Ingles TrueHD 7.1 + Core AC3 5.1 bluray

Ficha técnica

Video trailer de la película

Enlaces de descarga

Rip de Bluray

Descargar El llamado salvaje (2020) 4K UHD HDR Latino




Aportes de DPeliculasHDmega la pass es:dpeliculashdmega.org Aportes de CinemaniaHD la pass es:cinemaniahdd.com
Guardado en : 4K HDR , 4K UHD , Aventura , Drama , Familia

Películas relacionadas

descargar El llamado salvaje (2020) 4K UHD HDR Latino 4K HDR 1080p gratis, El llamado salvaje (2020) 4K UHD HDR Latino 4K HDR mega 1 link, El llamado salvaje (2020) 4K UHD HDR Latino 4K HDR pelicula completa, descargar El llamado salvaje (2020) 4K UHD HDR Latino 4K HDR gratis en mega.

El llamado salvaje (2020) 4K UHD HDR Latino pelicula full hd, El llamado salvaje (2020) 4K UHD HDR Latino mega latino, El llamado salvaje (2020) 4K UHD HDR Latino 4k latino, El llamado salvaje (2020) 4K UHD HDR Latino pelicula completa, El llamado salvaje (2020) 4K UHD HDR Latino descargar gratis, descargar El llamado salvaje (2020) 4K UHD HDR Latino pelicula latino, El llamado salvaje (2020) 4K UHD HDR Latino 1 link mega, El llamado salvaje (2020) 4K UHD HDR Latino 1 link google drive, El llamado salvaje (2020) 4K UHD HDR Latino hd 1080p latino.
Comentarios 0