×

¿Problemas para descargar con Mozilla, EDGE? Deshabilita la opción "Abrir vinculos en una pestaña nueva" tal como lo muestra ésta imagen.

The Cable Guy (1996) REMUX 1080p Latino – CMHDD

256 vistas

Información de The Cable Guy (1996) REMUX 1080p Latino – CMHDD

Datos de la película

  • Calidad: Full 1080p
  • Audio: Español Latino AC3 5.1 BLURAY - Ingles DTS 5.1 BLURAY
  • Subtitulos: Español Latino SRT- FORZADOS SRT
  • Resolución: 1920x1080p
  • Formato: MKV
  • Codec: H.264
  • Encoder: Dracarys
  • Mediainfo: Clic para Mostrar Datos Ver
  • Format                      : Matroska
    Format version              : Version 4
    File size                   : 19.6 GiB
    Duration                    : 1 h 35 min
    Overall bit rate mode       : Variable
    Overall bit rate            : 29.3 Mb/s
    Movie name                  : The Cable Guy (1996) REMUX 1080p Latino - CMHDD
    Encoded date                : UTC 2020-10-11 17:15:56
    Writing application         : mkvmerge v51.0.0 ('I Wish') 64-bit
    Writing library             : libebml v1.4.0 + libmatroska v1.6.2

    Video
    ID                          : 1
    Format                      : AVC
    Format/Info                 : Advanced Video Codec
    Format profile              : High@L4.1
    Format settings             : CABAC / 2 Ref Frames
    Format settings, CABAC      : Yes
    Format settings, Reference  : 2 frames
    Codec ID                    : V_MPEG4/ISO/AVC
    Duration                    : 1 h 35 min
    Bit rate mode               : Variable
    Bit rate                    : 25.0 Mb/s
    Width                       : 1 920 pixels
    Height                      : 1 080 pixels
    Display aspect ratio        : 16:9
    Frame rate mode             : Constant
    Frame rate                  : 23.976 (24000/1001) FPS
    Color space                 : YUV
    Chroma subsampling          : 4:2:0
    Bit depth                   : 8 bits
    Scan type                   : Progressive
    Bits/(Pixel*Frame)          : 0.502
    Stream size                 : 16.7 GiB (85%)
    Default                     : Yes
    Forced                      : No

    Audio #1
    ID                          : 2
    Format                      : AC-3
    Format/Info                 : Audio Coding 3
    Commercial name             : Dolby Digital
    Codec ID                    : A_AC3
    Duration                    : 1 h 35 min
    Bit rate mode               : Constant
    Bit rate                    : 640 kb/s
    Channel(s)                  : 6 channels
    Channel layout              : L R C LFE Ls Rs
    Sampling rate               : 48.0 kHz
    Frame rate                  : 31.250 FPS (1536 SPF)
    Compression mode            : Lossy
    Stream size                 : 438 MiB (2%)
    Language                    : Spanish
    Service kind                : Complete Main
    Default                     : Yes
    Forced                      : No

    Audio #2
    ID                          : 3
    Format                      : DTS XLL
    Format/Info                 : Digital Theater Systems
    Commercial name             : DTS-HD Master Audio
    Codec ID                    : A_DTS
    Duration                    : 1 h 35 min
    Bit rate mode               : Variable
    Bit rate                    : 3 692 kb/s
    Channel(s)                  : 6 channels
    Channel layout              : C L R Ls Rs LFE
    Sampling rate               : 48.0 kHz
    Frame rate                  : 93.750 FPS (512 SPF)
    Bit depth                   : 24 bits
    Compression mode            : Lossless
    Stream size                 : 2.47 GiB (13%)
    Language                    : English
    Default                     : No
    Forced                      : No

    Text #1
    ID                          : 4
    Format                      : PGS
    Muxing mode                 : zlib
    Codec ID                    : S_HDMV/PGS
    Codec ID/Info               : Picture based subtitle format used on BDs/HD-DVDs
    Duration                    : 1 h 30 min
    Bit rate                    : 33.8 kb/s
    Count of elements           : 2588
    Stream size                 : 21.9 MiB (0%)
    Language                    : Spanish
    Default                     : No
    Forced                      : No

    Text #2
    ID                          : 5
    Format                      : UTF-8
    Codec ID                    : S_TEXT/UTF8
    Codec ID/Info               : UTF-8 Plain Text
    Duration                    : 1 h 30 min
    Bit rate                    : 58 b/s
    Count of elements           : 1294
    Stream size                 : 38.7 KiB (0%)
    Language                    : Spanish
    Default                     : No
    Forced                      : No

    Text #3
    ID                          : 6
    Format                      : UTF-8
    Codec ID                    : S_TEXT/UTF8
    Codec ID/Info               : UTF-8 Plain Text
    Duration                    : 2 s 503 ms
    Bit rate                    : 79 b/s
    Count of elements           : 1
    Stream size                 : 25.0 Bytes (0%)
    Language                    : Spanish
    Default                     : Yes
    Forced                      : No

  • Peso: 19.6 GiB

Sinopsis

Un instalador del cable (Jim Carrey) llamado Ernie «Chip» Douglas atiende a Steven Kovacs (Matthew Broderick), que acaba de mudarse tras cortar con su novia Robin (Leslie Mann). Durante la instalación en la nueva casa Chip y Steven se llevan bien, y saliendo juntos crean una buena aunque curiosa amistad. Al principio todo va bien, y Steven vuelve con Robin, pero Chip se toma la amistad muy en serio, convirtiéndose en un neurótico acosador. Y, para desgracia de Steven, Chip cae bien a todos los de su círculo familiar, incluso a su novia a los cuales Chip logra manipular a tal punto que hace ver a Steven como un perfecto insoportable y a sí mismo como a la víctima de los arranques de ira de Steven.

Ficha técnica

Video trailer de la película

Enlaces de descarga

Rip de Bluray

Descargar The Cable Guy (1996) REMUX 1080p Latino – CMHDD


Aportes de DPeliculasHDmega la pass es:dpeliculashdmega.org Aportes de CinemaniaHD la pass es:cinemaniahdd.com
Guardado en : Comedia , Drama , Suspenso

Películas relacionadas

  • Blonde (2022) NF WEB-DL 1080p Latino

    Blonde (2022) NF WEB-DL 1080p Latino

    2022
    Blonde (2022) NF WEB-DL 1080p Latino

    2h 46m 2022

    Descargar Blonde (2022) NF WEB-DL 1080p Latino. Basada en el bestseller de la cinco veces finalista al...

    Director: Kristin Bree Calabrese

    Género: Drama

    Actores: Xavier Samuel

  • La Máquina infernal (2022) WEB-DL 1080p Latino

    La Máquina infernal (2022) WEB-DL 1080p Latino

    2022
    La Máquina infernal (2022) WEB-DL 1080p Latino

    1h 47m 2022

    Descargar La Máquina infernal (2022) WEB-DL 1080p Latino. Un fan obsesivo saca de su escondite al solitario...

    Director: Andrew Hunt

    Género: Suspenso

    Actores: Rocco Salata

  • Borrego: Sal Del Camino (2022) HD 1080p Latino

    Borrego: Sal Del Camino (2022) HD 1080p Latino

    2022
    Borrego: Sal Del Camino (2022) HD 1080p Latino

    1h 42m 2022

    Descargar Borrego: Sal Del Camino (2022) HD 1080p Latino. Una joven botánica se traslada a un pequeño...

    Director: Jesse Harris

    Género: Crimen

    Actores: Olivia Trujillo

  • Borrego: Sal Del Camino (2022) REMUX 1080p Latino

    Borrego: Sal Del Camino (2022) REMUX 1080p Latino

    2022
    Borrego: Sal Del Camino (2022) REMUX 1080p Latino

    1h 42m 2022

    Descargar Borrego: Sal Del Camino (2022) REMUX 1080p Latino. Una joven botánica se traslada a un pequeño...

    Director: Jesse Harris

    Género: Crimen

    Actores: Olivia Trujillo

descargar The Cable Guy (1996) REMUX 1080p Latino – CMHDD Full 1080p 1080p gratis, The Cable Guy (1996) REMUX 1080p Latino – CMHDD Full 1080p mega 1 link, The Cable Guy (1996) REMUX 1080p Latino – CMHDD Full 1080p pelicula completa, descargar The Cable Guy (1996) REMUX 1080p Latino – CMHDD Full 1080p gratis en mega.

The Cable Guy (1996) REMUX 1080p Latino – CMHDD pelicula full hd, The Cable Guy (1996) REMUX 1080p Latino – CMHDD mega latino, The Cable Guy (1996) REMUX 1080p Latino – CMHDD 4k latino, The Cable Guy (1996) REMUX 1080p Latino – CMHDD pelicula completa, The Cable Guy (1996) REMUX 1080p Latino – CMHDD descargar gratis, descargar The Cable Guy (1996) REMUX 1080p Latino – CMHDD pelicula latino, The Cable Guy (1996) REMUX 1080p Latino – CMHDD 1 link mega, The Cable Guy (1996) REMUX 1080p Latino – CMHDD 1 link google drive, The Cable Guy (1996) REMUX 1080p Latino – CMHDD hd 1080p latino.
Comentarios 0