×

¿Problemas para descargar con Mozilla, EDGE? Deshabilita la opción "Abrir vinculos en una pestaña nueva" tal como lo muestra ésta imagen.

The Butterfly Effect (2004) REMUX 1080p Latino – CMHDD

127 vistas

Información de The Butterfly Effect (2004) REMUX 1080p Latino – CMHDD

Datos de la película

  • Calidad: Full 1080p
  • Audio: Español Latino AC3 5.1 BLURAY - Ingles DTS 5.1 BLURAY
  • Subtitulos: Español Latino SRT
  • Resolución: 19201080p
  • Formato: MKV
  • Codec: H.264
  • Encoder: Dracarys
  • Mediainfo: Clic para Mostrar Datos Ver
  • Format                      : Matroska
    Format version              : Version 4
    File size                   : 22.7 GiB
    Duration                    : 1 h 53 min
    Overall bit rate mode       : Variable
    Overall bit rate            : 28.6 Mb/s
    Movie name                  : The Butterfly Effect (2004) REMUX 1080p Latino - CMHDD
    Encoded date                : UTC 2023-11-21 22:01:00
    Writing application         : mkvmerge v47.0.0 ('Black Flag') 64-bit
    Writing library             : libebml v1.3.10 + libmatroska v1.5.2

    Video
    ID                          : 1
    Format                      : AVC
    Format/Info                 : Advanced Video Codec
    Format profile              : High@L4.1
    Format settings             : CABAC / 4 Ref Frames
    Format settings, CABAC      : Yes
    Format settings, Reference  : 4 frames
    Codec ID                    : V_MPEG4/ISO/AVC
    Duration                    : 1 h 53 min
    Bit rate mode               : Variable
    Bit rate                    : 24.0 Mb/s
    Maximum bit rate            : 35.0 Mb/s
    Width                       : 1 920 pixels
    Height                      : 1 080 pixels
    Display aspect ratio        : 16:9
    Frame rate mode             : Constant
    Frame rate                  : 23.976 (24000/1001) FPS
    Standard                    : NTSC
    Color space                 : YUV
    Chroma subsampling          : 4:2:0
    Bit depth                   : 8 bits
    Scan type                   : Progressive
    Bits/(Pixel*Frame)          : 0.482
    Stream size                 : 19.0 GiB (84%)
    Title                       : BTM
    Language                    : English
    Default                     : Yes
    Forced                      : No
    Color range                 : Limited
    Color primaries             : BT.709
    Transfer characteristics    : BT.709
    Matrix coefficients         : BT.709

    Audio #1
    ID                          : 2
    Format                      : DTS XLL
    Format/Info                 : Digital Theater Systems
    Commercial name             : DTS-HD Master Audio
    Codec ID                    : A_DTS
    Duration                    : 1 h 53 min
    Bit rate mode               : Variable
    Bit rate                    : 2 025 kb/s
    Channel(s)                  : 6 channels
    Channel layout              : C L R Ls Rs LFE
    Sampling rate               : 48.0 kHz
    Frame rate                  : 93.750 FPS (512 SPF)
    Bit depth                   : 16 bits
    Compression mode            : Lossless
    Stream size                 : 1.61 GiB (7%)
    Language                    : English
    Default                     : No
    Forced                      : No

    Audio #2
    ID                          : 3
    Format                      : E-AC-3
    Format/Info                 : Enhanced AC-3
    Commercial name             : Dolby Digital Plus
    Codec ID                    : A_EAC3
    Duration                    : 1 h 53 min
    Bit rate mode               : Constant
    Bit rate                    : 960 kb/s
    Channel(s)                  : 6 channels
    Channel layout              : L R C LFE Ls Rs
    Sampling rate               : 48.0 kHz
    Frame rate                  : 31.250 FPS (1536 SPF)
    Compression mode            : Lossy
    Stream size                 : 780 MiB (3%)
    Language                    : English
    Service kind                : Complete Main
    Default                     : Yes
    Forced                      : No

    Audio #3
    ID                          : 4
    Format                      : AC-3
    Format/Info                 : Audio Coding 3
    Commercial name             : Dolby Digital
    Format settings             : Dolby Headphone
    Codec ID                    : A_AC3
    Duration                    : 1 h 53 min
    Bit rate mode               : Constant
    Bit rate                    : 640 kb/s
    Channel(s)                  : 2 channels
    Channel layout              : L R
    Sampling rate               : 48.0 kHz
    Frame rate                  : 31.250 FPS (1536 SPF)
    Compression mode            : Lossy
    Stream size                 : 520 MiB (2%)
    Language                    : English
    Service kind                : Complete Main
    Default                     : No
    Forced                      : No

    Audio #4
    ID                          : 5
    Format                      : E-AC-3
    Format/Info                 : Enhanced AC-3
    Commercial name             : Dolby Digital Plus
    Codec ID                    : A_EAC3
    Duration                    : 1 h 53 min
    Bit rate mode               : Constant
    Bit rate                    : 959 kb/s
    Channel(s)                  : 6 channels
    Channel layout              : L R C LFE Ls Rs
    Sampling rate               : 44.1 kHz
    Frame rate                  : 57.422 FPS (768 SPF)
    Compression mode            : Lossy
    Stream size                 : 780 MiB (3%)
    Language                    : Spanish
    Service kind                : Complete Main
    Default                     : No
    Forced                      : No

    Text
    ID                          : 6
    Format                      : UTF-8
    Codec ID                    : S_TEXT/UTF8
    Codec ID/Info               : UTF-8 Plain Text
    Duration                    : 1 h 53 min
    Bit rate                    : 59 b/s
    Frame rate                  : 0.212 FPS
    Count of elements           : 1441
    Stream size                 : 49.4 KiB (0%)
    Language                    : Spanish
    Default                     : No
    Forced                      : No

    Menu
    00:00:00.000                : en:You have to see this
    00:06:28.597                : en:Secrets
    00:11:16.676                : en:Blackouts
    00:16:50.009                : en:Tommy's revenge
    00:25:07.423                : en:Memory research
    00:31:40.482                : en:Remembering
    00:39:27.448                : en:Kaylee
    00:46:14.563                : en:Rewind: Kaylee
    00:57:49.966                : en:A new life
    01:04:58.770                : en:Prisoner
    01:14:49.443                : en:Rewind: Lenny
    01:23:12.529                : en:You were happy once
    01:28:50.951                : en:Rewind: Evan
    01:37:17.040                : en:Destroy the blockbuster
    01:43:09.141                : en:Last attempt
    01:47:55.761                : en:End credits

     

  • Peso: 22.7 GiB

Sinopsis

Evan Treborn, un joven que se está esforzando por superar unos dolorosos recuerdos de su infancia, descubre una técnica que le permite viajar atrás en el tiempo y ocupar su cuerpo de niño para poder cambiar el curso de su dolorosa historia. Sin embargo también descubre que cualquier mínimo cambio en el pasado altera enormemente su futuro.

Ficha técnica

Video trailer de la película

Enlaces de descarga

Rip de Bluray

Descargar The Butterfly Effect (2004) REMUX 1080p Latino – CMHDD




Aportes de DPeliculasHDmega la pass es:dpeliculashdmega.org Aportes de CinemaniaHD la pass es:cinemaniahdd.com Aportes recientes:cinemaniahdd.net
Guardado en : Ciencia ficción , Suspenso

Películas relacionadas

  • Dune: Parte dos (2024) WEB-DL 4K UHD HDR Latino

    Dune: Parte dos (2024) WEB-DL 4K UHD HDR Latino

    2024
    Dune: Parte dos (2024) WEB-DL 4K UHD HDR Latino

    2h 47m 2024

    Descargar Dune: Parte dos (2024) WEB-DL 4K UHD HDR Latino. Sigue el viaje mítico de Paul Atreides mientras...

    Director: Vera Janisch

    Género: 4K HDR

    Actores: Zouhair Elakkari

  • Dune: Parte dos (2024) AMZN WEB-DL 1080p Latino

    Dune: Parte dos (2024) AMZN WEB-DL 1080p Latino

    2024
    Dune: Parte dos (2024) AMZN WEB-DL 1080p Latino

    2h 47m 2024

    Descargar Dune: Parte dos (2024) AMZN WEB-DL 1080p Latino. Sigue el viaje mítico de Paul Atreides mientras...

    Director: Vera Janisch

    Género: Aventura

    Actores: Zouhair Elakkari

  • Godzilla vs. Kong (2021) REMUX 4K HDR Latino – CMHDD

    Godzilla vs. Kong (2021) REMUX 4K HDR Latino – CMHDD

    2021
    Godzilla vs. Kong (2021) REMUX 4K HDR Latino – CMHDD

    1h 54m 2021

    Godzilla y Kong, dos de las fuerzas más poderosas de un planeta habitado por todo tipo de aterradoras...

    Director: Thomas Robinson Harper

    Género: Acción

    Actores: Victoria Liu

  • Bumblebee (2018) REMUX 4K HDR Latino – CMHDD

    Bumblebee (2018) REMUX 4K HDR Latino – CMHDD

    2018
    Bumblebee (2018) REMUX 4K HDR Latino – CMHDD

    1h 54m 2018

    Sexta entrega de la saga 'Transformers', esta vez centrada en el "hermano pequeño" de los Autobots,...

    Director: Trisha Burton

    Género: Acción

    Actores: William W. Barbour

descargar The Butterfly Effect (2004) REMUX 1080p Latino – CMHDD Full 1080p 1080p gratis, The Butterfly Effect (2004) REMUX 1080p Latino – CMHDD Full 1080p mega 1 link, The Butterfly Effect (2004) REMUX 1080p Latino – CMHDD Full 1080p pelicula completa, descargar The Butterfly Effect (2004) REMUX 1080p Latino – CMHDD Full 1080p gratis en mega.

The Butterfly Effect (2004) REMUX 1080p Latino – CMHDD pelicula full hd, The Butterfly Effect (2004) REMUX 1080p Latino – CMHDD mega latino, The Butterfly Effect (2004) REMUX 1080p Latino – CMHDD 4k latino, The Butterfly Effect (2004) REMUX 1080p Latino – CMHDD pelicula completa, The Butterfly Effect (2004) REMUX 1080p Latino – CMHDD descargar gratis, descargar The Butterfly Effect (2004) REMUX 1080p Latino – CMHDD pelicula latino, The Butterfly Effect (2004) REMUX 1080p Latino – CMHDD 1 link mega, The Butterfly Effect (2004) REMUX 1080p Latino – CMHDD 1 link google drive, The Butterfly Effect (2004) REMUX 1080p Latino – CMHDD hd 1080p latino.
Comentarios 0