×

¿Problemas para descargar con Mozilla, EDGE? Deshabilita la opción "Abrir vinculos en una pestaña nueva" tal como lo muestra ésta imagen.

The Burning Girls (2023) Primera Temporada AMZN WEB-DL 1080p Latino

113 vistas

Información de The Burning Girls (2023) Primera Temporada AMZN WEB-DL 1080p Latino

Datos de la película

  • Calidad: 1080p
  • Audio: Español Latino AC3 2.0 WEB-DL - Ingles AC3 5.1 WEB-DL
  • Subtitulos: Español Latino SRT - Ingles SRT
  • Resolución: 1920x1080
  • Formato: MKV
  • Codec: H.264
  • Encoder: cinemaniahdd
  • Mediainfo: Clic para Mostrar Datos Ver
  • The Burning Girls T01E01 AMZN WEB-DL 1080p Latino [CNMNHDD].mkv
    Format                      : Matroska
    Format version              : Version 4
    File size                   : 3.07 GiB
    Duration                    : 55 min 47 s
    Overall bit rate            : 7 877 kb/s
    Movie name                  : The Burning Girls S01E01 - One [1080p] - CinemaniaHDD.Net
    Encoded date                : UTC 2023-10-19 23:56:24
    Writing application         : mkvmerge v56.1.0 ('My Friend') 64-bit
    Writing library             : libebml v1.4.2 + libmatroska v1.6.4

    Video
    ID                          : 1
    Format                      : AVC
    Format/Info                 : Advanced Video Codec
    Format profile              : High@L4
    Format settings             : CABAC / 4 Ref Frames
    Format settings, CABAC      : Yes
    Format settings, Reference  : 4 frames
    Codec ID                    : V_MPEG4/ISO/AVC
    Duration                    : 55 min 47 s
    Bit rate mode               : Constant
    Bit rate                    : 6 626 kb/s
    Nominal bit rate            : 10 000 kb/s
    Width                       : 1 920 pixels
    Height                      : 1 080 pixels
    Display aspect ratio        : 16:9
    Frame rate mode             : Constant
    Frame rate                  : 23.976 (24000/1001) FPS
    Color space                 : YUV
    Chroma subsampling          : 4:2:0
    Bit depth                   : 8 bits
    Scan type                   : Progressive
    Bits/(Pixel*Frame)          : 0.133
    Stream size                 : 2.58 GiB (84%)
    Title                       : CinemaniaHDD
    Default                     : Yes
    Forced                      : No
    Color range                 : Limited
    Color primaries             : BT.709
    Transfer characteristics    : BT.709
    Matrix coefficients         : BT.709

    Audio #1
    ID                          : 2
    Format                      : AC-3
    Format/Info                 : Audio Coding 3
    Commercial name             : Dolby Digital
    Codec ID                    : A_AC3
    Duration                    : 55 min 47 s
    Bit rate mode               : Constant
    Bit rate                    : 384 kb/s
    Channel(s)                  : 6 channels
    Channel layout              : L R C LFE Ls Rs
    Sampling rate               : 48.0 kHz
    Frame rate                  : 31.250 FPS (1536 SPF)
    Compression mode            : Lossy
    Stream size                 : 153 MiB (5%)
    Title                       : Español latino [CinemaniaHDD]
    Language                    : Spanish
    Service kind                : Complete Main
    Default                     : Yes
    Forced                      : No

    Audio #2
    ID                          : 3
    Format                      : E-AC-3
    Format/Info                 : Enhanced AC-3
    Commercial name             : Dolby Digital Plus
    Codec ID                    : A_EAC3
    Duration                    : 55 min 47 s
    Bit rate mode               : Constant
    Bit rate                    : 224 kb/s
    Channel(s)                  : 2 channels
    Channel layout              : L R
    Sampling rate               : 48.0 kHz
    Frame rate                  : 31.250 FPS (1536 SPF)
    Compression mode            : Lossy
    Stream size                 : 89.4 MiB (3%)
    Title                       : Español latino / E-AC3 [CinemaniaHDD]
    Language                    : Spanish
    Service kind                : Complete Main
    Default                     : No
    Forced                      : No

    Audio #3
    ID                          : 4
    Format                      : E-AC-3
    Format/Info                 : Enhanced AC-3
    Commercial name             : Dolby Digital Plus
    Codec ID                    : A_EAC3
    Duration                    : 55 min 47 s
    Bit rate mode               : Constant
    Bit rate                    : 640 kb/s
    Channel(s)                  : 6 channels
    Channel layout              : L R C LFE Ls Rs
    Sampling rate               : 48.0 kHz
    Frame rate                  : 31.250 FPS (1536 SPF)
    Compression mode            : Lossy
    Stream size                 : 255 MiB (8%)
    Title                       : English
    Language                    : English
    Service kind                : Complete Main
    Default                     : No
    Forced                      : No

    Text #1
    ID                          : 5
    Format                      : UTF-8
    Codec ID                    : S_TEXT/UTF8
    Codec ID/Info               : UTF-8 Plain Text
    Duration                    : 54 min 20 s
    Bit rate                    : 38 b/s
    Count of elements           : 597
    Stream size                 : 15.4 KiB (0%)
    Title                       : Español latino [CinemaniaHDD]
    Language                    : Spanish
    Default                     : No
    Forced                      : No

    Text #2
    ID                          : 6
    Format                      : UTF-8
    Codec ID                    : S_TEXT/UTF8
    Codec ID/Info               : UTF-8 Plain Text
    Duration                    : 54 min 32 s
    Bit rate                    : 46 b/s
    Count of elements           : 737
    Stream size                 : 18.6 KiB (0%)
    Title                       : Inglés [CinemaniaHDD]
    Language                    : English
    Default                     : No
    Forced                      : No

     

  • Peso: 3.07 GiB Aprox ---- 16 GiB in 6 Chapters.

Sinopsis

La reverenda Jack Brooks y su hija, Flo, se mudan a Chapel Croft. Una villa en la que dos chicas adolescentes desaparecieron y los fantasmas de las «niñas en llamas» perturban la capilla.

Ficha técnica

Video trailer de la película

Enlaces de descarga

Rip de Bluray

Descargar The Burning Girls (2023) Primera Temporada AMZN WEB-DL 1080p Latino




Aportes de DPeliculasHDmega la pass es:dpeliculashdmega.org Aportes de CinemaniaHD la pass es:cinemaniahdd.com Aportes recientes:cinemaniahdd.net
Guardado en : Drama , Misterio , Series

Películas relacionadas

descargar The Burning Girls (2023) Primera Temporada AMZN WEB-DL 1080p Latino 1080p 1080p gratis, The Burning Girls (2023) Primera Temporada AMZN WEB-DL 1080p Latino 1080p mega 1 link, The Burning Girls (2023) Primera Temporada AMZN WEB-DL 1080p Latino 1080p serie completa, descargar The Burning Girls (2023) Primera Temporada AMZN WEB-DL 1080p Latino 1080p gratis en mega.

The Burning Girls (2023) Primera Temporada AMZN WEB-DL 1080p Latino pelicula full hd, The Burning Girls (2023) Primera Temporada AMZN WEB-DL 1080p Latino mega latino, The Burning Girls (2023) Primera Temporada AMZN WEB-DL 1080p Latino 4k latino, The Burning Girls (2023) Primera Temporada AMZN WEB-DL 1080p Latino pelicula completa, The Burning Girls (2023) Primera Temporada AMZN WEB-DL 1080p Latino descargar gratis, descargar The Burning Girls (2023) Primera Temporada AMZN WEB-DL 1080p Latino pelicula latino, The Burning Girls (2023) Primera Temporada AMZN WEB-DL 1080p Latino 1 link mega, The Burning Girls (2023) Primera Temporada AMZN WEB-DL 1080p Latino 1 link google drive, The Burning Girls (2023) Primera Temporada AMZN WEB-DL 1080p Latino hd 1080p latino.
Comentarios 0