×

¿Problemas para descargar con Mozilla, EDGE? Deshabilita la opción "Abrir vinculos en una pestaña nueva" tal como lo muestra ésta imagen.

Viviendo con mi ex (2006) REMUX 1080p Latino-CMHDD

60 vistas

Información de Viviendo con mi ex (2006) REMUX 1080p Latino-CMHDD

Datos de la película

  • Calidad: Full 1080p
  • Audio: Español Latino DTS 5.1 BLURAY - Ingles DTS-HD 5.1 BLURAY
  • Subtitulos: Español Latino PGS - Ingles PGS
  • Resolución: 1920x1080p
  • Formato: MKV
  • Codec: H.264
  • Encoder: CinefiloCool
  • Mediainfo: Clic para Mostrar Datos Ver
  • The.Break.Up.2006.Bluray.REMUX.1080p.VC-1.Latino-CC@CMHDD.mkv
    Format                      : Matroska
    Format version              : Version 4
    File size                   : 16.9 GiB
    Duration                    : 1 h 46 min
    Overall bit rate mode       : Variable
    Overall bit rate            : 22.7 Mb/s
    Movie name                  : The Break Up (2006) CinemaniaHDD.Net
    Encoded date                : UTC 2024-05-21 22:01:05
    Writing application         : mkvmerge v56.1.0 ('My Friend') 64-bit
    Writing library             : libebml v1.4.2 + libmatroska v1.6.4
    Cover                       : Yes
    Attachments                 : cover.jpg / CINEMANIAHD.png

    Video
    ID                          : 1
    ID in the original source m : 4113 (0x1011)
    Format                      : VC-1
    Format profile              : Advanced@L3
    Codec ID                    : V_MS/VFW/FOURCC / WVC1
    Codec ID/Hint               : Microsoft
    Duration                    : 1 h 46 min
    Bit rate                    : 18.3 Mb/s
    Width                       : 1 920 pixels
    Height                      : 1 080 pixels
    Display aspect ratio        : 16:9
    Frame rate mode             : Constant
    Frame rate                  : 23.976 (24000/1001) FPS
    Color space                 : YUV
    Chroma subsampling          : 4:2:0
    Bit depth                   : 8 bits
    Scan type                   : Progressive
    Compression mode            : Lossy
    Bits/(Pixel*Frame)          : 0.368
    Stream size                 : 13.6 GiB (81%)
    Title                       : REMUX HD1080p [CinemaniaHDD]
    Default                     : Yes
    Forced                      : Yes
    Original source medium      : Blu-ray

    Audio #1
    ID                          : 2
    ID in the original source m : 4359 (0x1107)
    Format                      : DTS
    Format/Info                 : Digital Theater Systems
    Codec ID                    : A_DTS
    Duration                    : 1 h 46 min
    Bit rate mode               : Constant
    Bit rate                    : 768 kb/s
    Channel(s)                  : 6 channels
    Channel layout              : C L R Ls Rs LFE
    Sampling rate               : 48.0 kHz
    Frame rate                  : 93.750 FPS (512 SPF)
    Bit depth                   : 24 bits
    Compression mode            : Lossy
    Stream size                 : 585 MiB (3%)
    Title                       : Español Latino [CinemaniaHDD]
    Language                    : Spanish
    Default                     : Yes
    Forced                      : Yes
    Original source medium      : Blu-ray

    Audio #2
    ID                          : 3
    ID in the original source m : 4353 (0x1101)
    Format                      : DTS XLL
    Format/Info                 : Digital Theater Systems
    Commercial name             : DTS-HD Master Audio
    Codec ID                    : A_DTS
    Duration                    : 1 h 46 min
    Bit rate mode               : Variable
    Bit rate                    : 3 593 kb/s
    Channel(s)                  : 6 channels
    Channel layout              : C L R Ls Rs LFE
    Sampling rate               : 48.0 kHz
    Frame rate                  : 93.750 FPS (512 SPF)
    Bit depth                   : 24 bits
    Compression mode            : Lossless
    Stream size                 : 2.67 GiB (16%)
    Title                       : Ingles [CinemaniaHDD]
    Language                    : English
    Default                     : No
    Forced                      : No
    Original source medium      : Blu-ray

    Text #1
    ID                          : 4
    ID in the original source m : 4627 (0x1213)
    Format                      : PGS
    Muxing mode                 : zlib
    Codec ID                    : S_HDMV/PGS
    Codec ID/Info               : Picture based subtitle format used on BDs/HD-DVDs
    Duration                    : 1 h 38 min
    Bit rate                    : 223 b/s
    Count of elements           : 12
    Stream size                 : 161 KiB (0%)
    Title                       : Forzados-PGS [CinemaniaHDD]
    Language                    : Spanish
    Default                     : No
    Forced                      : No
    Original source medium      : Blu-ray

    Text #2
    ID                          : 5
    ID in the original source m : 4615 (0x1207)
    Format                      : PGS
    Muxing mode                 : zlib
    Codec ID                    : S_HDMV/PGS
    Codec ID/Info               : Picture based subtitle format used on BDs/HD-DVDs
    Duration                    : 1 h 41 min
    Bit rate                    : 53.4 kb/s
    Count of elements           : 3264
    Stream size                 : 38.6 MiB (0%)
    Title                       : Español-PGS [CinemaniaHDD]
    Language                    : Spanish
    Default                     : No
    Forced                      : No
    Original source medium      : Blu-ray

    Text #3
    ID                          : 6
    ID in the original source m : 4609 (0x1201)
    Format                      : PGS
    Muxing mode                 : zlib
    Codec ID                    : S_HDMV/PGS
    Codec ID/Info               : Picture based subtitle format used on BDs/HD-DVDs
    Duration                    : 1 h 43 min
    Bit rate                    : 61.9 kb/s
    Count of elements           : 3460
    Stream size                 : 45.9 MiB (0%)
    Title                       : Ingles [CinemaniaHDD]
    Language                    : English
    Default                     : No
    Forced                      : No
    Original source medium      : Blu-ray

    Text #4
    ID                          : 7
    Format                      : UTF-8
    Codec ID                    : S_TEXT/UTF8
    Codec ID/Info               : UTF-8 Plain Text
    Duration                    : 1 h 38 min
    Bit rate                    : 0 b/s
    Count of elements           : 6
    Stream size                 : 203 Bytes (0%)
    Title                       : Forzados-SRT [CinemaniaHDD]
    Language                    : Spanish
    Default                     : Yes
    Forced                      : Yes

    Text #5
    ID                          : 8
    Format                      : UTF-8
    Codec ID                    : S_TEXT/UTF8
    Codec ID/Info               : UTF-8 Plain Text
    Duration                    : 1 h 41 min
    Bit rate                    : 88 b/s
    Count of elements           : 1632
    Stream size                 : 65.7 KiB (0%)
    Title                       : Español-SRT [CinemaniaHDD]
    Language                    : Spanish
    Default                     : No
    Forced                      : No

    Menu
    00:00:00.000                : Chapter 01
    00:06:20.963                : Chapter 02
    00:12:41.927                : Chapter 03
    00:18:53.799                : Chapter 04
    00:24:50.989                : Chapter 05
    00:29:13.084                : Chapter 06
    00:33:57.118                : Chapter 07
    00:38:28.764                : Chapter 08
    00:43:06.375                : Chapter 09
    00:46:51.558                : Chapter 10
    00:50:35.198                : Chapter 11
    00:54:14.417                : Chapter 12
    01:01:47.620                : Chapter 13
    01:09:13.232                : Chapter 14
    01:13:49.716                : Chapter 15
    01:18:43.009                : Chapter 16
    01:26:15.211                : Chapter 17
    01:32:26.290                : Chapter 18
    01:38:12.011                : Chapter 19
    01:41:47.017                : Chapter 20

  • Peso: 16.9 GiB

Sinopsis

Descargar Viviendo con mi ex (2006) REMUX 1080p Latino-CMHDD. Relato sobre las consecuencias de una ruptura sentimental. Gary (Vince Vaughn) y Brooke (Jennifer Aniston), tras dos años de noviazgo, descubren que el amor que se habían profesado ha desaparecido. El detonante es una pequeña discusión doméstica que acaba convirtiéndose en una pelea desaforada. El problema es que ninguno de los dos quiere dejar el apartamento; empieza así una batalla en la que no faltan amigos y parientes que les aconsejan recurrir a la guerra «psicológica» para conseguir que el otro abandone el hogar…

Ficha técnica

Video trailer de la película

Enlaces de descarga

Rip de Bluray

Descargar Viviendo con mi ex (2006) REMUX 1080p Latino-CMHDD


Aportes de DPeliculasHDmega la pass es:dpeliculashdmega.org Aportes de CinemaniaHD la pass es:cinemaniahdd.com Aportes recientes:cinemaniahdd.net
Guardado en : Comedia , Remux , Romance

Películas relacionadas

descargar Viviendo con mi ex (2006) REMUX 1080p Latino-CMHDD Full 1080p 1080p gratis, Viviendo con mi ex (2006) REMUX 1080p Latino-CMHDD Full 1080p mega 1 link, Viviendo con mi ex (2006) REMUX 1080p Latino-CMHDD Full 1080p pelicula completa, descargar Viviendo con mi ex (2006) REMUX 1080p Latino-CMHDD Full 1080p gratis en mega.

Viviendo con mi ex (2006) REMUX 1080p Latino-CMHDD pelicula full hd, Viviendo con mi ex (2006) REMUX 1080p Latino-CMHDD mega latino, Viviendo con mi ex (2006) REMUX 1080p Latino-CMHDD 4k latino, Viviendo con mi ex (2006) REMUX 1080p Latino-CMHDD pelicula completa, Viviendo con mi ex (2006) REMUX 1080p Latino-CMHDD descargar gratis, descargar Viviendo con mi ex (2006) REMUX 1080p Latino-CMHDD pelicula latino, Viviendo con mi ex (2006) REMUX 1080p Latino-CMHDD 1 link mega, Viviendo con mi ex (2006) REMUX 1080p Latino-CMHDD 1 link google drive, Viviendo con mi ex (2006) REMUX 1080p Latino-CMHDD hd 1080p latino.
Comentarios 0