×

¿Problemas para descargar con Mozilla, EDGE? Deshabilita la opción "Abrir vinculos en una pestaña nueva" tal como lo muestra ésta imagen.

The Bravest (2019) HD 1080p Latino

365 vistas

Información de The Bravest (2019) HD 1080p Latino

Datos de la película

  • Calidad: 1080p
  • Audio: Se especifica abajo de la Sinopsis
  • Subtitulos: Español Latino SRT- FORZADOS SRT
  • Resolución: 1920x1040
  • Formato: MKV
  • Codec: H.264
  • Encoder: cinemaniahdd
  • Mediainfo: Clic para Mostrar Datos Ver
  • The Bravest (2019) HD 1080p Latino.mkv
    Format                      : Matroska
    Format version              : Version 4
    File size                   : 3.40 GiB
    Duration                    : 1 h 58 min
    Overall bit rate            : 4 098 kb/s
    Movie name                  : The Bravest (2019) HD - CinemaniaHDD.Net
    Encoded date                : UTC 2020-10-24 21:04:31
    Writing application         : mkvmerge v51.0.0 ('I Wish') 64-bit
    Writing library             : libebml v1.4.0 + libmatroska v1.6.2

    Video
    ID                          : 1
    Format                      : AVC
    Format/Info                 : Advanced Video Codec
    Format profile              : Main@L4
    Format settings             : CABAC / 4 Ref Frames
    Format settings, CABAC      : Yes
    Format settings, Reference  : 4 frames
    Codec ID                    : V_MPEG4/ISO/AVC
    Duration                    : 1 h 58 min
    Bit rate                    : 3 500 kb/s
    Width                       : 1 920 pixels
    Height                      : 1 040 pixels
    Display aspect ratio        : 1.85:1
    Frame rate mode             : Constant
    Frame rate                  : 24.000 FPS
    Color space                 : YUV
    Chroma subsampling          : 4:2:0
    Bit depth                   : 8 bits
    Scan type                   : Progressive
    Bits/(Pixel*Frame)          : 0.073
    Stream size                 : 2.82 GiB (83%)
    Title                       : CinemaniaHDD
    Writing library             : x264 core 157 r2935 545de2f
    Encoding settings           : cabac=1 / ref=4 / deblock=1:0:0 / analyse=0x1:0x131 / me=umh / subme=9 / psy=1 / psy_rd=1.00:0.00 / mixed_ref=1 / me_range=16 / chroma_me=1 / trellis=2 / 8x8dct=0 / cqm=0 / deadzone=21,11 / fast_pskip=1 / chroma_qp_offset=-2 / threads=24 / lookahead_threads=2 / sliced_threads=0 / nr=0 / decimate=1 / interlaced=0 / bluray_compat=0 / constrained_intra=0 / bframes=3 / b_pyramid=2 / b_adapt=2 / b_bias=0 / direct=3 / weightb=1 / open_gop=0 / weightp=2 / keyint=240 / keyint_min=24 / scenecut=40 / intra_refresh=0 / rc_lookahead=60 / rc=abr / mbtree=1 / bitrate=3500 / ratetol=1.0 / qcomp=0.60 / qpmin=0 / qpmax=69 / qpstep=4 / vbv_maxrate=20000 / vbv_bufsize=25000 / nal_hrd=none / filler=0 / ip_ratio=1.40 / aq=1:1.00
    Default                     : Yes
    Forced                      : No
    Color range                 : Limited
    Color primaries             : BT.709
    Transfer characteristics    : BT.709
    Matrix coefficients         : BT.709

    Audio #1
    ID                          : 2
    Format                      : AC-3
    Format/Info                 : Audio Coding 3
    Commercial name             : Dolby Digital
    Codec ID                    : A_AC3
    Duration                    : 1 h 58 min
    Bit rate mode               : Constant
    Bit rate                    : 256 kb/s
    Channel(s)                  : 2 channels
    Channel layout              : L R
    Sampling rate               : 48.0 kHz
    Frame rate                  : 31.250 FPS (1536 SPF)
    Compression mode            : Lossy
    Delay relative to video     : -5 ms
    Stream size                 : 218 MiB (6%)
    Title                       : Español latino - AC3 [CinemaniaHDD]
    Language                    : Spanish
    Service kind                : Complete Main
    Default                     : Yes
    Forced                      : No

    Audio #2
    ID                          : 3
    Format                      : AC-3
    Format/Info                 : Audio Coding 3
    Commercial name             : Dolby Digital
    Codec ID                    : A_AC3
    Duration                    : 1 h 58 min
    Bit rate mode               : Constant
    Bit rate                    : 448 kb/s
    Channel(s)                  : 2 channels
    Channel layout              : L R
    Sampling rate               : 48.0 kHz
    Frame rate                  : 31.250 FPS (1536 SPF)
    Compression mode            : Lossy
    Delay relative to video     : -5 ms
    Stream size                 : 381 MiB (11%)
    Title                       : Chino [CinemaniaHDD]
    Language                    : Chinese
    Service kind                : Complete Main
    Default                     : No
    Forced                      : No

    Text #1
    ID                          : 4
    Format                      : UTF-8
    Codec ID                    : S_TEXT/UTF8
    Codec ID/Info               : UTF-8 Plain Text
    Duration                    : 1 h 50 min
    Bit rate                    : 0 b/s
    Count of elements           : 9
    Stream size                 : 200 Bytes (0%)
    Title                       : Forzados [CinemaniaHDD]
    Language                    : Spanish
    Default                     : Yes
    Forced                      : Yes

    Text #2
    ID                          : 5
    Format                      : UTF-8
    Codec ID                    : S_TEXT/UTF8
    Codec ID/Info               : UTF-8 Plain Text
    Duration                    : 1 h 50 min
    Bit rate                    : 37 b/s
    Count of elements           : 1066
    Stream size                 : 30.1 KiB (0%)
    Title                       : Español latino [CinemaniaHDD]
    Language                    : Spanish
    Default                     : No
    Forced                      : No

    Menu
    00:00:00.000                : :Capitulo 01
    00:01:36.542                : :Capitulo 02
    00:09:10.042                : :Capitulo 03
    00:15:35.792                : :Capitulo 04
    00:22:08.792                : :Capitulo 05
    00:28:44.833                : :Capitulo 06
    00:36:28.458                : :Capitulo 07
    00:44:57.125                : :Capitulo 08
    00:52:33.750                : :Capitulo 09
    01:00:19.417                : :Capitulo 10
    01:07:53.125                : :Capitulo 11
    01:14:43.125                : :Capitulo 12
    01:22:24.917                : :Capitulo 13
    01:29:46.417                : :Capitulo 14
    01:42:23.292                : :Capitulo 15
    01:51:54.500                : :Capitulo 16

     

  • Peso: 3.40 GiB

Sinopsis

Basado en eventos de la vida real, la película gira en torno a los esfuerzos heroicos de un equipo de bomberos mientras intentan lidiar con un incendio que estalla en una refinería de petróleo en Dalian

Español Latino AC3 2.0 WEB-DL – Chino AC3 5.1 Bluray

Audio Español Latino WEB-DL, no captura de tv gringa como en otros lados

Ficha técnica

  • Titulo original: 烈火英雄
  • Fecha de lanzamiento: 29-08-2019 (China)
  • Director: Tony Chan
  • Género: Drama, HD 1080p

Video trailer de la película

Enlaces de descarga

Rip de Bluray

Descargar The Bravest (2019) HD 1080p Latino




Aportes de DPeliculasHDmega la pass es:dpeliculashdmega.org Aportes de CinemaniaHD la pass es:cinemaniahdd.com
Guardado en : Drama , HD 1080p

Películas relacionadas

descargar The Bravest (2019) HD 1080p Latino 1080p 1080p gratis, The Bravest (2019) HD 1080p Latino 1080p mega 1 link, The Bravest (2019) HD 1080p Latino 1080p pelicula completa, descargar The Bravest (2019) HD 1080p Latino 1080p gratis en mega.

The Bravest (2019) HD 1080p Latino pelicula full hd, The Bravest (2019) HD 1080p Latino mega latino, The Bravest (2019) HD 1080p Latino 4k latino, The Bravest (2019) HD 1080p Latino pelicula completa, The Bravest (2019) HD 1080p Latino descargar gratis, descargar The Bravest (2019) HD 1080p Latino pelicula latino, The Bravest (2019) HD 1080p Latino 1 link mega, The Bravest (2019) HD 1080p Latino 1 link google drive, The Bravest (2019) HD 1080p Latino hd 1080p latino.
Comentarios 0