×

¿Problemas para descargar con Mozilla, EDGE? Deshabilita la opción "Abrir vinculos en una pestaña nueva" tal como lo muestra ésta imagen.

The Boys in the Boat (2023) AMZN WEB-DL 1080p Latino

128 vistas

Información de The Boys in the Boat (2023) AMZN WEB-DL 1080p Latino

Datos de la película

  • Calidad: WEBDL
  • Audio: Español Latino AC3 5.1 WEB-DL - Ingles AC3 5.1 WEB-DL
  • Subtitulos: Español Latino SRT- FORZADOS SRT
  • Resolución: 1920x800p
  • Formato: MKV
  • Codec: H.264
  • Encoder: Melkor
  • Mediainfo: Clic para Mostrar Datos Ver
  • The Boys in The Boat (2023) AMZN WEB 1080p Latino.mkv
    Format                      : Matroska
    Format version              : Version 4
    File size                   : 8.41 GiB
    Duration                    : 2 h 3 min
    Overall bit rate            : 9 731 kb/s
    Movie name                  : The Boys in The Boat (2023) CinemaniaHDD.Net
    Encoded date                : UTC 2024-01-17 08:02:42
    Writing application         : mkvmerge v56.1.0 ('My Friend') 64-bit
    Writing library             : libebml v1.4.2 + libmatroska v1.6.4
    Attachments                 : CINEMANIAHD.png
    Site                        : CinemaniaHDD.Net
    Uploader                    : Melkor

    Video
    ID                          : 1
    Format                      : AVC
    Format/Info                 : Advanced Video Codec
    Format profile              : High@L4
    Format settings             : CABAC / 4 Ref Frames
    Format settings, CABAC      : Yes
    Format settings, Reference  : 4 frames
    Codec ID                    : V_MPEG4/ISO/AVC
    Duration                    : 2 h 3 min
    Bit rate mode               : Constant
    Bit rate                    : 8 579 kb/s
    Nominal bit rate            : 10 000 kb/s
    Width                       : 1 920 pixels
    Height                      : 800 pixels
    Display aspect ratio        : 2.40:1
    Frame rate mode             : Constant
    Frame rate                  : 23.976 (24000/1001) FPS
    Color space                 : YUV
    Chroma subsampling          : 4:2:0
    Bit depth                   : 8 bits
    Scan type                   : Progressive
    Bits/(Pixel*Frame)          : 0.233
    Stream size                 : 7.42 GiB (88%)
    Title                       : Web HD1080p [CinemaniaHDD]
    Language                    : English
    Default                     : Yes
    Forced                      : Yes
    Color range                 : Limited
    Color primaries             : BT.709
    Transfer characteristics    : BT.709
    Matrix coefficients         : BT.709

    Audio #1
    ID                          : 2
    Format                      : AC-3
    Format/Info                 : Audio Coding 3
    Commercial name             : Dolby Digital
    Codec ID                    : A_AC3
    Duration                    : 2 h 3 min
    Bit rate mode               : Constant
    Bit rate                    : 384 kb/s
    Channel(s)                  : 6 channels
    Channel layout              : L R C LFE Ls Rs
    Sampling rate               : 48.0 kHz
    Frame rate                  : 31.250 FPS (1536 SPF)
    Compression mode            : Lossy
    Stream size                 : 339 MiB (4%)
    Title                       : Español Latino [CinemaniaHDD]
    Language                    : Spanish
    Service kind                : Complete Main
    Default                     : Yes
    Forced                      : Yes

    Audio #2
    ID                          : 3
    Format                      : E-AC-3 JOC
    Format/Info                 : Enhanced AC-3 with Joint Object Coding
    Commercial name             : Dolby Digital Plus with Dolby Atmos
    Codec ID                    : A_EAC3
    Duration                    : 2 h 3 min
    Bit rate mode               : Constant
    Bit rate                    : 768 kb/s
    Channel(s)                  : 6 channels
    Channel layout              : L R C LFE Ls Rs
    Sampling rate               : 48.0 kHz
    Frame rate                  : 31.250 FPS (1536 SPF)
    Compression mode            : Lossy
    Delay relative to video     : 19 ms
    Stream size                 : 678 MiB (8%)
    Title                       : Ingles [CinemaniaHDD]
    Language                    : English
    Service kind                : Complete Main
    Default                     : No
    Forced                      : No
    Complexity index            : 16
    Number of dynamic objects   : 15
    Bed channel count           : 1 channel
    Bed channel configuration   : LFE

    Text #1
    ID                          : 4
    Format                      : UTF-8
    Codec ID                    : S_TEXT/UTF8
    Codec ID/Info               : UTF-8 Plain Text
    Duration                    : 1 h 37 min
    Bit rate                    : 0 b/s
    Count of elements           : 12
    Stream size                 : 249 Bytes (0%)
    Title                       : Forzados-SRT [CinemaniaHDD]
    Language                    : Spanish
    Default                     : Yes
    Forced                      : Yes

    Text #2
    ID                          : 5
    Format                      : UTF-8
    Codec ID                    : S_TEXT/UTF8
    Codec ID/Info               : UTF-8 Plain Text
    Duration                    : 1 h 57 min
    Bit rate                    : 62 b/s
    Count of elements           : 1844
    Stream size                 : 53.5 KiB (0%)
    Title                       : Español-SRT [CinemaniaHDD]
    Language                    : Spanish
    Default                     : No
    Forced                      : No

    Text #3
    ID                          : 6
    Format                      : UTF-8
    Codec ID                    : S_TEXT/UTF8
    Codec ID/Info               : UTF-8 Plain Text
    Duration                    : 1 h 56 min
    Bit rate                    : 64 b/s
    Count of elements           : 1909
    Stream size                 : 54.7 KiB (0%)
    Title                       : Ingles-SRT [CinemaniaHDD]
    Language                    : English
    Default                     : No
    Forced                      : No

    Menu
    00:00:00.000                : Chapter 01
    00:06:39.399                : Chapter 02
    00:11:55.465                : Chapter 03
    00:17:43.313                : Chapter 04
    00:23:20.316                : Chapter 05
    00:30:53.853                : Chapter 06
    00:37:16.444                : Chapter 07
    00:43:05.877                : Chapter 08
    00:48:16.980                : Chapter 09
    00:55:14.189                : Chapter 10
    01:00:49.399                : Chapter 11
    01:07:54.783                : Chapter 12
    01:13:27.282                : Chapter 13
    01:18:48.353                : Chapter 14
    01:26:37.822                : Chapter 15
    01:32:36.514                : Chapter 16
    01:39:36.935                : Chapter 17
    01:44:13.753                : Chapter 18
    01:50:43.685                : Chapter 19
    01:59:05.061                : Chapter 20

  • Peso: 8.41 GiB

Sinopsis

Descargar The Boys in the Boat (2023) AMZN WEB-DL 1080p Latino. Historia ambientada en los años 30 y centrada en el equipo de remo de la Universidad de Washington, desde sus comienzos en la era de la Depresión hasta ganar el oro en los Juegos Olímpicos de Berlín de 1936.

Ficha técnica

Video trailer de la película

Enlaces de descarga

Rip de Bluray

Descargar The Boys in the Boat (2023) AMZN WEB-DL 1080p Latino




Aportes de DPeliculasHDmega la pass es:dpeliculashdmega.org Aportes de CinemaniaHD la pass es:cinemaniahdd.com Aportes recientes:cinemaniahdd.net
Guardado en : Drama , Historia

Películas relacionadas

descargar The Boys in the Boat (2023) AMZN WEB-DL 1080p Latino WEBDL 1080p gratis, The Boys in the Boat (2023) AMZN WEB-DL 1080p Latino WEBDL mega 1 link, The Boys in the Boat (2023) AMZN WEB-DL 1080p Latino WEBDL pelicula completa, descargar The Boys in the Boat (2023) AMZN WEB-DL 1080p Latino WEBDL gratis en mega.

The Boys in the Boat (2023) AMZN WEB-DL 1080p Latino pelicula full hd, The Boys in the Boat (2023) AMZN WEB-DL 1080p Latino mega latino, The Boys in the Boat (2023) AMZN WEB-DL 1080p Latino 4k latino, The Boys in the Boat (2023) AMZN WEB-DL 1080p Latino pelicula completa, The Boys in the Boat (2023) AMZN WEB-DL 1080p Latino descargar gratis, descargar The Boys in the Boat (2023) AMZN WEB-DL 1080p Latino pelicula latino, The Boys in the Boat (2023) AMZN WEB-DL 1080p Latino 1 link mega, The Boys in the Boat (2023) AMZN WEB-DL 1080p Latino 1 link google drive, The Boys in the Boat (2023) AMZN WEB-DL 1080p Latino hd 1080p latino.
Comentarios 0