×

¿Problemas para descargar con Mozilla, EDGE? Deshabilita la opción "Abrir vinculos en una pestaña nueva" tal como lo muestra ésta imagen.

The Boys in the Band (2020) NF WEB-DL 1080p-HDR Latino

306 vistas

Información de The Boys in the Band (2020) NF WEB-DL 1080p-HDR Latino

Datos de la película

  • Calidad: WEBDL
  • Audio: Español Latino AC3 5.1 Netflix - Ingles AC3 5.1 Netflix
  • Subtitulos: Español Latino SRT- FORZADOS SRT
  • Resolución: 1920x1080
  • Formato: MKV
  • Codec: H.264
  • Encoder: cinemaniahdd
  • Mediainfo: Clic para Mostrar Datos Ver
  • The Boys in the Band (2020) NF WEB-DL 1080p-HDR Latino [CNMNHDD].mkv
    Format                      : Matroska
    Format version              : Version 4
    File size                   : 5.50 GiB
    Duration                    : 2 h 2 min
    Overall bit rate            : 6 433 kb/s
    Movie name                  : The Boys in the Band (2020) HDR - CinemaniaHDD.Net
    Encoded date                : UTC 2020-09-30 22:57:20
    Writing application         : mkvmerge v46.0.0 ('No Deeper Escape') 64-bit
    Writing library             : libebml v1.3.10 + libmatroska v1.5.2

    Video
    ID                          : 1
    Format                      : HEVC
    Format/Info                 : High Efficiency Video Coding
    Format profile              : Main 10@L4@Main
    HDR format                  : SMPTE ST 2086, HDR10 compatible
    Codec ID                    : V_MPEGH/ISO/HEVC
    Duration                    : 2 h 1 min
    Bit rate                    : 5 693 kb/s
    Width                       : 1 920 pixels
    Height                      : 1 080 pixels
    Display aspect ratio        : 16:9
    Frame rate mode             : Constant
    Frame rate                  : 24.000 FPS
    Color space                 : YUV
    Chroma subsampling          : 4:2:0 (Type 2)
    Bit depth                   : 10 bits
    Bits/(Pixel*Frame)          : 0.114
    Stream size                 : 4.84 GiB (88%)
    Title                       : CinemaniaHDD
    Default                     : Yes
    Forced                      : No
    Color range                 : Limited
    Color primaries             : BT.2020
    Transfer characteristics    : PQ
    Matrix coefficients         : BT.2020 non-constant
    Mastering display color pri : Display P3
    Mastering display luminance : min: 0.0001 cd/m2, max: 1000 cd/m2
    Maximum Content Light Level : 738 cd/m2
    Maximum Frame-Average Light : 123 cd/m2

    Audio #1
    ID                          : 2
    Format                      : AC-3
    Format/Info                 : Audio Coding 3
    Commercial name             : Dolby Digital
    Codec ID                    : A_AC3
    Duration                    : 2 h 2 min
    Bit rate mode               : Constant
    Bit rate                    : 384 kb/s
    Channel(s)                  : 6 channels
    Channel layout              : L R C LFE Ls Rs
    Sampling rate               : 48.0 kHz
    Frame rate                  : 31.250 FPS (1536 SPF)
    Compression mode            : Lossy
    Stream size                 : 336 MiB (6%)
    Title                       : Español latino [CinemaniaHDD]
    Language                    : Spanish
    Service kind                : Complete Main
    Default                     : Yes
    Forced                      : No

    Audio #2
    ID                          : 3
    Format                      : AC-3
    Format/Info                 : Audio Coding 3
    Commercial name             : Dolby Digital
    Codec ID                    : A_AC3
    Duration                    : 2 h 2 min
    Bit rate mode               : Constant
    Bit rate                    : 384 kb/s
    Channel(s)                  : 6 channels
    Channel layout              : L R C LFE Ls Rs
    Sampling rate               : 48.0 kHz
    Frame rate                  : 31.250 FPS (1536 SPF)
    Compression mode            : Lossy
    Stream size                 : 336 MiB (6%)
    Title                       : Inglés [CinemaniaHDD]
    Language                    : English
    Service kind                : Complete Main
    Default                     : No
    Forced                      : No

    Text #1
    ID                          : 4
    Format                      : UTF-8
    Codec ID                    : S_TEXT/UTF8
    Codec ID/Info               : UTF-8 Plain Text
    Duration                    : 2 h 1 min
    Bit rate                    : 0 b/s
    Count of elements           : 7
    Stream size                 : 226 Bytes (0%)
    Title                       : Forzados [CinemaniaHDD]
    Language                    : Spanish
    Default                     : Yes
    Forced                      : Yes

    Text #2
    ID                          : 5
    Format                      : UTF-8
    Codec ID                    : S_TEXT/UTF8
    Codec ID/Info               : UTF-8 Plain Text
    Duration                    : 2 h 1 min
    Bit rate                    : 64 b/s
    Count of elements           : 1719
    Stream size                 : 57.6 KiB (0%)
    Title                       : Español latino [CinemaniaHDD]
    Language                    : Spanish
    Default                     : No
    Forced                      : No

    Text #3
    ID                          : 6
    Format                      : UTF-8
    Codec ID                    : S_TEXT/UTF8
    Codec ID/Info               : UTF-8 Plain Text
    Duration                    : 1 h 54 min
    Bit rate                    : 84 b/s
    Count of elements           : 1908
    Stream size                 : 70.8 KiB (0%)
    Title                       : Inglés [CinemaniaHDD]
    Language                    : English
    Default                     : No
    Forced                      : No

  • Peso: 5.50 GiB

Sinopsis

Un grupo de homosexuales se reúne en un apartamento de Nueva York para celebrar el cumpleaños de un amigo. Cuando transcurren las horas, después de beber y de subir el volumen de la música, la velada comienza a exponer las fisuras que existen entre su amistad y el dolor auto-infligido que amenaza con hacer trizas su concepto de la solidaridad.

Ficha técnica

  • Titulo original: The Boys in the Band
  • Fecha de lanzamiento: 30-09-2020 (United States of America)
  • Director: Joe Mantello
  • Género: Drama, Netflix

Video trailer de la película

Enlaces de descarga

Rip de Bluray

Descargar The Boys in the Band (2020) NF WEB-DL 1080p-HDR Latino




Aportes de DPeliculasHDmega la pass es:dpeliculashdmega.org Aportes de CinemaniaHD la pass es:cinemaniahdd.com
Guardado en : Drama , Netflix

Películas relacionadas

  • Togo (2022) NF WEB-DL 1080p Latino

    Togo (2022) NF WEB-DL 1080p Latino

    2022
    Togo (2022) NF WEB-DL 1080p Latino

    1h 35m 2022

    Descargar Togo (2022) NF WEB-DL 1080p Latino. Los narcos de poca monta están copando las calles de Montevideo...

    Director: Adrián Caetano

    Género: Crimen

    Actores: Tito Prieto

  • El Ultimo Juego (2021) WEB-DL 1080p Latino

    El Ultimo Juego (2021) WEB-DL 1080p Latino

    2021
    El Ultimo Juego (2021) WEB-DL 1080p Latino

    1h 21m 2021

    Descargar El Ultimo Juego (2021) WEB-DL 1080p Latino. 6 extraños se despiertan dentro de una habitación...

    Director: John David Moffat IV

    Género: Drama

    Actores: Yasmin Irvine

descargar The Boys in the Band (2020) NF WEB-DL 1080p-HDR Latino WEBDL 1080p gratis, The Boys in the Band (2020) NF WEB-DL 1080p-HDR Latino WEBDL mega 1 link, The Boys in the Band (2020) NF WEB-DL 1080p-HDR Latino WEBDL pelicula completa, descargar The Boys in the Band (2020) NF WEB-DL 1080p-HDR Latino WEBDL gratis en mega.

The Boys in the Band (2020) NF WEB-DL 1080p-HDR Latino pelicula full hd, The Boys in the Band (2020) NF WEB-DL 1080p-HDR Latino mega latino, The Boys in the Band (2020) NF WEB-DL 1080p-HDR Latino 4k latino, The Boys in the Band (2020) NF WEB-DL 1080p-HDR Latino pelicula completa, The Boys in the Band (2020) NF WEB-DL 1080p-HDR Latino descargar gratis, descargar The Boys in the Band (2020) NF WEB-DL 1080p-HDR Latino pelicula latino, The Boys in the Band (2020) NF WEB-DL 1080p-HDR Latino 1 link mega, The Boys in the Band (2020) NF WEB-DL 1080p-HDR Latino 1 link google drive, The Boys in the Band (2020) NF WEB-DL 1080p-HDR Latino hd 1080p latino.
Comentarios 0