×

¿Problemas para descargar con Mozilla, EDGE? Deshabilita la opción "Abrir vinculos en una pestaña nueva" tal como lo muestra ésta imagen.

The Boys (2022) Tercera Temporada AMZN WEB-DL 1080p Latino

4.247 vistas

Información de The Boys (2022) Tercera Temporada AMZN WEB-DL 1080p Latino

Datos de la película

  • Calidad: 1080p
  • Audio: Español Latino AC3 5.1 WEB-DL - Ingles AC3 5.1 WEB-DL
  • Subtitulos: Español Latino SRT- FORZADOS SRT
  • Resolución: 1920x1080
  • Formato: MKV
  • Codec: H.264
  • Encoder: cinemaniahdd
  • Mediainfo: Clic para Mostrar Datos Ver
  • The Boys T03E01 AMZN WEB-DL 1080p Latino [CNMNHDD].mkv
    Format                      : Matroska
    Format version              : Version 4
    File size                   : 4.55 GiB
    Duration                    : 1 h 1 min
    Overall bit rate            : 10.5 Mb/s
    Movie name                  : The Boys S03E01 - Payback [1080p] [CBR]
    Encoded date                : UTC 2022-06-03 23:34:25
    Writing application         : mkvmerge v56.1.0 ('My Friend') 64-bit
    Writing library             : libebml v1.4.2 + libmatroska v1.6.4

    Video
    ID                          : 1
    Format                      : AVC
    Format/Info                 : Advanced Video Codec
    Format profile              : High@L4
    Format settings             : CABAC / 4 Ref Frames
    Format settings, CABAC      : Yes
    Format settings, Reference  : 4 frames
    Codec ID                    : V_MPEG4/ISO/AVC
    Duration                    : 1 h 1 min
    Bit rate mode               : Constant
    Bit rate                    : 8 580 kb/s
    Nominal bit rate            : 10 000 kb/s
    Width                       : 1 920 pixels
    Height                      : 1 080 pixels
    Display aspect ratio        : 16:9
    Frame rate mode             : Constant
    Frame rate                  : 23.976 (24000/1001) FPS
    Color space                 : YUV
    Chroma subsampling          : 4:2:0
    Bit depth                   : 8 bits
    Scan type                   : Progressive
    Bits/(Pixel*Frame)          : 0.173
    Stream size                 : 3.71 GiB (82%)
    Title                       : CinemaniaHDD
    Default                     : Yes
    Forced                      : No
    Color range                 : Limited
    Color primaries             : BT.709
    Transfer characteristics    : BT.709
    Matrix coefficients         : BT.709

    Audio #1
    ID                          : 2
    Format                      : AC-3
    Format/Info                 : Audio Coding 3
    Commercial name             : Dolby Digital
    Codec ID                    : A_AC3
    Duration                    : 1 h 1 min
    Bit rate mode               : Constant
    Bit rate                    : 640 kb/s
    Channel(s)                  : 6 channels
    Channel layout              : L R C LFE Ls Rs
    Sampling rate               : 48.0 kHz
    Frame rate                  : 31.250 FPS (1536 SPF)
    Compression mode            : Lossy
    Stream size                 : 284 MiB (6%)
    Title                       : Español latino [CinemaniaHDD]
    Language                    : Spanish
    Service kind                : Complete Main
    Default                     : Yes
    Forced                      : No

    Audio #2
    ID                          : 3
    Format                      : E-AC-3
    Format/Info                 : Enhanced AC-3
    Commercial name             : Dolby Digital Plus
    Codec ID                    : A_EAC3
    Duration                    : 1 h 1 min
    Bit rate mode               : Constant
    Bit rate                    : 640 kb/s
    Channel(s)                  : 6 channels
    Channel layout              : L R C LFE Ls Rs
    Sampling rate               : 48.0 kHz
    Frame rate                  : 31.250 FPS (1536 SPF)
    Compression mode            : Lossy
    Stream size                 : 284 MiB (6%)
    Title                       : Español latino / E-AC3 [CinemaniaHDD]
    Language                    : Spanish
    Service kind                : Complete Main
    Default                     : No
    Forced                      : No

    Audio #3
    ID                          : 4
    Format                      : E-AC-3
    Format/Info                 : Enhanced AC-3
    Commercial name             : Dolby Digital Plus
    Codec ID                    : A_EAC3
    Duration                    : 1 h 1 min
    Bit rate mode               : Constant
    Bit rate                    : 640 kb/s
    Channel(s)                  : 6 channels
    Channel layout              : L R C LFE Ls Rs
    Sampling rate               : 48.0 kHz
    Frame rate                  : 31.250 FPS (1536 SPF)
    Compression mode            : Lossy
    Stream size                 : 284 MiB (6%)
    Title                       : Inglés [CinemaniaHDD]
    Language                    : English
    Service kind                : Complete Main
    Default                     : No
    Forced                      : No

    Text #1
    ID                          : 5
    Format                      : UTF-8
    Codec ID                    : S_TEXT/UTF8
    Codec ID/Info               : UTF-8 Plain Text
    Duration                    : 54 min 9 s
    Bit rate                    : 1 b/s
    Count of elements           : 21
    Stream size                 : 676 Bytes (0%)
    Title                       : Forzados [CinemaniaHDD]
    Language                    : Spanish
    Default                     : No
    Forced                      : Yes

    Text #2
    ID                          : 6
    Format                      : UTF-8
    Codec ID                    : S_TEXT/UTF8
    Codec ID/Info               : UTF-8 Plain Text
    Duration                    : 1 h 0 min
    Bit rate                    : 58 b/s
    Count of elements           : 786
    Stream size                 : 26.0 KiB (0%)
    Title                       : Español latino [CinemaniaHDD]
    Language                    : Spanish
    Default                     : No
    Forced                      : No

    Menu
    00:00:00.000                : Amazon Original
    00:00:04.000                : Previously On
    00:01:38.000                : Scene 3
    00:03:50.000                : Scene 4
    00:04:12.000                : Scene 5
    00:05:02.000                : Scene 6
    00:05:40.000                : Scene 7
    00:06:35.000                : Scene 8
    00:06:56.000                : Scene 9
    00:07:12.000                : Scene 10
    00:07:38.000                : Scene 11
    00:08:49.000                : Scene 12
    00:09:38.000                : Scene 13
    00:10:28.000                : Scene 14
    00:12:45.000                : Scene 15
    00:13:51.000                : Scene 16
    00:14:40.000                : Title Sequence
    00:14:44.000                : Scene 18
    00:14:55.000                : Scene 19
    00:15:42.000                : Scene 20
    00:16:41.000                : Scene 21
    00:17:29.000                : Scene 22
    00:18:30.000                : Scene 23
    00:19:17.000                : Scene 24
    00:19:44.000                : Scene 25
    00:22:18.000                : Scene 26
    00:24:09.000                : Scene 27
    00:24:57.000                : Scene 28
    00:25:43.000                : Scene 29
    00:27:16.000                : Scene 30
    00:29:56.000                : Scene 31
    00:31:11.000                : Scene 32
    00:33:30.000                : Scene 33
    00:34:02.000                : Scene 34
    00:37:35.000                : Scene 35
    00:38:50.000                : Scene 36
    00:39:02.000                : Scene 37
    00:40:36.000                : Scene 38
    00:42:31.000                : Scene 39
    00:42:48.000                : Scene 40
    00:44:37.000                : Scene 41
    00:44:51.000                : Scene 42
    00:46:47.000                : Scene 43
    00:49:32.000                : Scene 44
    00:50:10.000                : Scene 45
    00:53:45.000                : Scene 46
    00:54:30.000                : Scene 47
    00:54:46.000                : Scene 48
    00:55:20.000                : Scene 49
    00:58:05.000                : End Credits

     

  • Peso: 4.55 GiB Aprox ---- 35 GiB in 8 Chapters.

Sinopsis

La serie tiene lugar en un mundo en el que los superhéroes representan el lado oscuro de la celebridad y la fama. Un grupo de vigilantes que se hacen llamar «The Boys» decide hacer todo lo posible por frenar a los superhéroes que están perjudicando a la sociedad, independientemente de los riesgos que ello conlleva.

 

Ficha técnica

Video trailer de la película

Enlaces de descarga

Rip de Bluray

Descargar The Boys (2022) Tercera Temporada AMZN WEB-DL 1080p Latino




Aportes de DPeliculasHDmega la pass es:dpeliculashdmega.org Aportes de CinemaniaHD la pass es:cinemaniahdd.com
Guardado en : Crimen , Drama , Suspenso

Películas relacionadas

  • Juego de espías (2001) 1080p Latino

    Juego de espías (2001) 1080p Latino

    2001
    Juego de espías (2001) 1080p Latino

    2h 6m 2001

    Descargar Juego de espías (2001) 1080p Latino. Corre el año 1991, y al veterano agente de la CIA Nathan...

    Director: Tony Scott

    Género: Acción

    Actores: Zsolt Zágoni

  • Juego de espías (2001) Full HD 1080p Latino

    Juego de espías (2001) Full HD 1080p Latino

    2001
    Juego de espías (2001) Full HD 1080p Latino

    2h 6m 2001

    Descargar Juego de espías (2001) Full HD 1080p Latino. Corre el año 1991, y al veterano agente de la...

    Director: Tony Scott

    Género: Acción

    Actores: Zsolt Zágoni

  • Juego de espías (2001) REMUX 1080p Latino

    Juego de espías (2001) REMUX 1080p Latino

    2001
    Juego de espías (2001) REMUX 1080p Latino

    1h 55m 2001

    Descargar Juego de espías (2001) REMUX 1080p Latino. El día de su jubilación, el veterano agente de...

    Director: Tony Scott

    Género: Acción

    Actores: Zsolt Zágoni

  • Hombre de familia (2000) REMUX 1080p Latino

    Hombre de familia (2000) REMUX 1080p Latino

    2000
    Hombre de familia (2000) REMUX 1080p Latino

    2h 1m 2000

    Descargar Hombre de familia (2000) REMUX 1080p Latino. Jack Campbell es un egocéntrico broker de Wall...

    Director: Robert Schroer

    Género: Comedia

    Actores: Wass Stevens

descargar The Boys (2022) Tercera Temporada AMZN WEB-DL 1080p Latino 1080p 1080p gratis, The Boys (2022) Tercera Temporada AMZN WEB-DL 1080p Latino 1080p mega 1 link, The Boys (2022) Tercera Temporada AMZN WEB-DL 1080p Latino 1080p pelicula completa, descargar The Boys (2022) Tercera Temporada AMZN WEB-DL 1080p Latino 1080p gratis en mega.

The Boys (2022) Tercera Temporada AMZN WEB-DL 1080p Latino pelicula full hd, The Boys (2022) Tercera Temporada AMZN WEB-DL 1080p Latino mega latino, The Boys (2022) Tercera Temporada AMZN WEB-DL 1080p Latino 4k latino, The Boys (2022) Tercera Temporada AMZN WEB-DL 1080p Latino pelicula completa, The Boys (2022) Tercera Temporada AMZN WEB-DL 1080p Latino descargar gratis, descargar The Boys (2022) Tercera Temporada AMZN WEB-DL 1080p Latino pelicula latino, The Boys (2022) Tercera Temporada AMZN WEB-DL 1080p Latino 1 link mega, The Boys (2022) Tercera Temporada AMZN WEB-DL 1080p Latino 1 link google drive, The Boys (2022) Tercera Temporada AMZN WEB-DL 1080p Latino hd 1080p latino.
Comentarios 0