The Boys (2019) Temporada 1 AMZN WEB-DL 1080p Latino

5.247 vistas
1 estrella2 estrellas3 estrellas4 estrellas5 estrellas (7 votos, promedio: 4,57 de 5)
Cargando...

Información de The Boys (2019) Temporada 1 AMZN WEB-DL 1080p Latino

Datos de la película

  • Calidad: WEBDL
  • Audio: Español Latino E-AC3 5.1 AMAZON - Ingles E-AC3 5.1 AMAZON
  • Subtitulos: Español Latino SRT- FORZADOS SRT
  • Resolución: 1920x1080
  • Formato: MKV
  • Codec: H.264
  • Encoder: cinemaniahdd
  • Mediainfo: Clic para Mostrar Datos Ver
  • The Boys T01E01 AMZN WEB-DL 1080p Latino [CNMNHDD].mkv
    Format                      : Matroska
    Format version              : Version 4
    File size                   : 3.70 GiB
    Duration                    : 1 h 0 min
    Overall bit rate            : 8 802 kb/s
    Movie name                  : The Boys T01E01  - CinemaniaHDD.Net
    Encoded date                : UTC 2020-08-12 00:54:24
    Writing application         : mkvmerge v46.0.0 ('No Deeper Escape') 64-bit
    Writing library             : libebml v1.3.10 + libmatroska v1.5.2

    Video
    ID                          : 1
    Format                      : AVC
    Format/Info                 : Advanced Video Codec
    Format profile              : High@L4
    Format settings             : CABAC / 4 Ref Frames
    Format settings, CABAC      : Yes
    Format settings, Reference  : 4 frames
    Codec ID                    : V_MPEG4/ISO/AVC
    Duration                    : 1 h 0 min
    Bit rate mode               : Constant
    Bit rate                    : 7 520 kb/s
    Nominal bit rate            : 10 000 kb/s
    Width                       : 1 920 pixels
    Height                      : 1 080 pixels
    Display aspect ratio        : 16:9
    Frame rate mode             : Constant
    Frame rate                  : 23.976 (24000/1001) FPS
    Color space                 : YUV
    Chroma subsampling          : 4:2:0
    Bit depth                   : 8 bits
    Scan type                   : Progressive
    Bits/(Pixel*Frame)          : 0.151
    Stream size                 : 3.16 GiB (85%)
    Title                       : CinemaniaHDD
    Default                     : Yes
    Forced                      : No
    Color range                 : Limited
    Color primaries             : BT.709
    Transfer characteristics    : BT.709
    Matrix coefficients         : BT.709

    Audio #1
    ID                          : 2
    Format                      : E-AC-3
    Format/Info                 : Enhanced AC-3
    Commercial name             : Dolby Digital Plus
    Codec ID                    : A_EAC3
    Duration                    : 1 h 0 min
    Bit rate mode               : Constant
    Bit rate                    : 640 kb/s
    Channel(s)                  : 6 channels
    Channel layout              : L R C LFE Ls Rs
    Sampling rate               : 48.0 kHz
    Frame rate                  : 31.250 FPS (1536 SPF)
    Compression mode            : Lossy
    Stream size                 : 275 MiB (7%)
    Title                       : Español latino [CinemaniaHDD]
    Language                    : Spanish
    Service kind                : Complete Main
    Default                     : Yes
    Forced                      : No

    Audio #2
    ID                          : 3
    Format                      : E-AC-3
    Format/Info                 : Enhanced AC-3
    Commercial name             : Dolby Digital Plus
    Codec ID                    : A_EAC3
    Duration                    : 1 h 0 min
    Bit rate mode               : Constant
    Bit rate                    : 640 kb/s
    Channel(s)                  : 6 channels
    Channel layout              : L R C LFE Ls Rs
    Sampling rate               : 48.0 kHz
    Frame rate                  : 31.250 FPS (1536 SPF)
    Compression mode            : Lossy
    Stream size                 : 275 MiB (7%)
    Title                       : Inglés [CinemaniaHDD]
    Language                    : English
    Service kind                : Complete Main
    Default                     : No
    Forced                      : No

    Text #1
    ID                          : 4
    Format                      : UTF-8
    Codec ID                    : S_TEXT/UTF8
    Codec ID/Info               : UTF-8 Plain Text
    Duration                    : 19 min 7 s
    Bit rate                    : 2 b/s
    Count of elements           : 11
    Stream size                 : 289 Bytes (0%)
    Title                       : Forzados [CinemaniaHDD]
    Language                    : Spanish
    Default                     : Yes
    Forced                      : Yes

    Text #2
    ID                          : 5
    Format                      : UTF-8
    Codec ID                    : S_TEXT/UTF8
    Codec ID/Info               : UTF-8 Plain Text
    Duration                    : 57 min 19 s
    Bit rate                    : 64 b/s
    Count of elements           : 843
    Stream size                 : 27.1 KiB (0%)
    Title                       : Español latino [CinemaniaHDD]
    Language                    : Spanish
    Default                     : No
    Forced                      : No

    Text #3
    ID                          : 6
    Format                      : UTF-8
    Codec ID                    : S_TEXT/UTF8
    Codec ID/Info               : UTF-8 Plain Text
    Duration                    : 59 min 35 s
    Bit rate                    : 77 b/s
    Count of elements           : 1197
    Stream size                 : 33.7 KiB (0%)
    Title                       : Inglés [CinemaniaHDD]
    Language                    : English
    Default                     : No
    Forced                      : No

     

  • Peso: 3.70 GiB C/U APROX. --- 29.7 GiB in 8 chapters

Sinopsis

THE BOYS es una mirada irreverente sobre la idea de qué sucedería si los superhéroes, quienes son tan populares como las celebridades, más influyentes que los políticos y venerados como dioses, abusaran de sus poderes en vez de dedicarse a hacer el bien. En The Boys, veremos a los normales luchar contra los superpoderosos para exponer la verdad sobre «Los Siete» y el formidable Vought.

Ficha técnica

Video trailer de la película

Enlaces de descarga

Rip de Bluray

Descargar The Boys (2019) Temporada 1 AMZN WEB-DL 1080p Latino




Aportes de DPeliculasHDmega la pass es:dpeliculashdmega.org Aportes de CinemaniaHD la pass es:cinemaniahdd.com

Películas relacionadas

Comentarios 8
  • eduardo - 07 agosto, 2020

    ojala con la temporada 2 no pongan «imagenes spoiler» como en la uno

    • Dracarys - 07 agosto, 2020

      no veas las imágenes y listo…

      • eduardo - 10 agosto, 2020

        que respuesta tan… mejor pónganse mas listos.

        • Dracarys - 10 agosto, 2020

          No todas las series que se suben las vemos… Y no sabemos que partes pueden tener o no Spoiler…

  • Juan CA - 05 agosto, 2020

    Hola amigos de cinemania podrian subirlo a google drive, en mega no me deja descargar nada de manera gratuita, muchas gracias.

    • Dracarys - 06 agosto, 2020

      por ahora solo esta mega…

  • Jorge Salinas Palacios - 26 julio, 2019

    Muchas gracias son los mejores sus aportes son de impresionante calidad estoy contento con esta familia que cada vez crece mas. Gracias… tendrán de casualidad la serie de SITIADOS México.

  • Luis Cohaíla Guzmán - 25 julio, 2019

    E X C E L E N T E ! ! !