×

¿Problemas para descargar con Mozilla, EDGE? Deshabilita la opción "Abrir vinculos en una pestaña nueva" tal como lo muestra ésta imagen.

The Boy: La maldición de Brahms (2020) AMZN 1080p Latino

1.775 vistas

Información de The Boy: La maldición de Brahms (2020) AMZN 1080p Latino

Datos de la película

  • Calidad: WEBDL
  • Audio: Español Latino AC3 5.1 AMAZON - Ingles AC3 5.1 AMAZON
  • Subtitulos: Español Latino SRT
  • Resolución: 1920x800
  • Formato: MKV
  • Codec: H.264
  • Encoder: cinemaniahd
  • Mediainfo: Clic para Mostrar Datos Ver
  • Brahms The Boy II (2020) AMZN 1080p Latino.mkv
    Format                      : Matroska
    Format version              : Version 4
    File size                   : 3.56 GiB
    Duration                    : 1 h 26 min
    Overall bit rate            : 5 893 kb/s
    Movie name                  : Brahms The Boy II (2020) AMZN 1080p Latino
    Encoded date                : UTC 2020-04-03 20:04:23
    Writing application         : mkvmerge v42.0.0 ('Overtime') 64-bit
    Writing library             : libebml v1.3.10 + libmatroska v1.5.2

    Video
    ID                          : 1
    Format                      : AVC
    Format/Info                 : Advanced Video Codec
    Format profile              : High@L4
    Format settings             : CABAC / 4 Ref Frames
    Format settings, CABAC      : Yes
    Format settings, ReFrames   : 4 frames
    Codec ID                    : V_MPEG4/ISO/AVC
    Duration                    : 1 h 26 min
    Bit rate mode               : Constant
    Bit rate                    : 4 802 kb/s
    Nominal bit rate            : 10 000 kb/s
    Width                       : 1 920 pixels
    Height                      : 800 pixels
    Display aspect ratio        : 2.40:1
    Frame rate mode             : Constant
    Frame rate                  : 23.976 (24000/1001) FPS
    Color space                 : YUV
    Chroma subsampling          : 4:2:0
    Bit depth                   : 8 bits
    Scan type                   : Progressive
    Bits/(Pixel*Frame)          : 0.130
    Stream size                 : 2.90 GiB (81%)
    Title                       : CinemaniaHDD
    Default                     : Yes
    Forced                      : No
    Color range                 : Limited
    Color primaries             : BT.709
    Transfer characteristics    : BT.709
    Matrix coefficients         : BT.709

    Audio #1
    ID                          : 2
    Format                      : AC-3
    Format/Info                 : Audio Coding 3
    Commercial name             : Dolby Digital
    Codec ID                    : A_AC3
    Duration                    : 1 h 26 min
    Bit rate mode               : Constant
    Bit rate                    : 448 kb/s
    Channel(s)                  : 6 channels
    Channel layout              : L R C LFE Ls Rs
    Sampling rate               : 48.0 kHz
    Frame rate                  : 31.250 FPS (1536 SPF)
    Bit depth                   : 16 bits
    Compression mode            : Lossy
    Stream size                 : 277 MiB (8%)
    Title                       : Español latino [CinemaniaHDD]
    Language                    : Spanish
    Service kind                : Complete Main
    Default                     : Yes
    Forced                      : No

    Audio #2
    ID                          : 3
    Format                      : E-AC-3
    Format/Info                 : Enhanced AC-3
    Commercial name             : Dolby Digital Plus
    Codec ID                    : A_EAC3
    Duration                    : 1 h 26 min
    Bit rate mode               : Constant
    Bit rate                    : 640 kb/s
    Channel(s)                  : 6 channels
    Channel layout              : L R C LFE Ls Rs
    Sampling rate               : 48.0 kHz
    Frame rate                  : 31.250 FPS (1536 SPF)
    Compression mode            : Lossy
    Stream size                 : 396 MiB (11%)
    Title                       : Inglés [CinemaniaHDD]
    Language                    : English
    Service kind                : Complete Main
    Default                     : No
    Forced                      : No

    Text
    ID                          : 4
    Format                      : UTF-8
    Codec ID                    : S_TEXT/UTF8
    Codec ID/Info               : UTF-8 Plain Text
    Duration                    : 1 h 19 min
    Bit rate                    : 47 b/s
    Count of elements           : 885
    Stream size                 : 27.8 KiB (0%)
    Title                       : Español latino [CinemaniaHDD]
    Language                    : Spanish
    Default                     : Yes
    Forced                      : No

  • Peso: 3.56 GiB

Sinopsis

Una familia joven que desconoce la oscura historia, se muda a la Mansión Heelshire. La premisa seguirá la historia del hijo menor que encuentra la muñeca de porcelana y se hace amigo de Brahms.

Ficha técnica

Video trailer de la película

Enlaces de descarga

Rip de Bluray

Descargar The Boy: La maldición de Brahms (2020) AMZN 1080p Latino




Aportes de DPeliculasHDmega la pass es:dpeliculashdmega.org Aportes de CinemaniaHD la pass es:cinemaniahdd.com
Guardado en : Misterio , Suspenso , Terror

Películas relacionadas

descargar The Boy: La maldición de Brahms (2020) AMZN 1080p Latino WEBDL 1080p gratis, The Boy: La maldición de Brahms (2020) AMZN 1080p Latino WEBDL mega 1 link, The Boy: La maldición de Brahms (2020) AMZN 1080p Latino WEBDL pelicula completa, descargar The Boy: La maldición de Brahms (2020) AMZN 1080p Latino WEBDL gratis en mega.

The Boy: La maldición de Brahms (2020) AMZN 1080p Latino pelicula full hd, The Boy: La maldición de Brahms (2020) AMZN 1080p Latino mega latino, The Boy: La maldición de Brahms (2020) AMZN 1080p Latino 4k latino, The Boy: La maldición de Brahms (2020) AMZN 1080p Latino pelicula completa, The Boy: La maldición de Brahms (2020) AMZN 1080p Latino descargar gratis, descargar The Boy: La maldición de Brahms (2020) AMZN 1080p Latino pelicula latino, The Boy: La maldición de Brahms (2020) AMZN 1080p Latino 1 link mega, The Boy: La maldición de Brahms (2020) AMZN 1080p Latino 1 link google drive, The Boy: La maldición de Brahms (2020) AMZN 1080p Latino hd 1080p latino.
Comentarios 0