The Boy Downstairs (2018) WEBDL 1080p Latino

508 vistas
1 estrella2 estrellas3 estrellas4 estrellas5 estrellas (Ninguna valoración todavía)
Cargando…

Información de The Boy Downstairs (2018) WEBDL 1080p Latino

Datos de la película

  • Calidad: WEBDL
  • Audio: Español Latino AC3 2.0 Capturado - Ingles AC3 5.1 iTunes
  • Subtitulos: No
  • Resolución: 1920x1080p
  • Formato: MKV
  • Codec: H.264
  • Encoder: RAPiDCOWS
  • Mediainfo: Clic para Mostrar Datos Ver
  • The Boy Downstairs (2017) Web-DL 1080p Latino.mkv
    Format                      : Matroska
    Format version              : Version 4 / Version 2
    File size                   : 3.33 GiB
    Duration                    : 1 h 26 min
    Overall bit rate mode       : Variable
    Overall bit rate            : 5 489 kb/s
    Movie name                  : CinemaniaHDD.Net
    Encoded date                : UTC 2018-10-12 02:43:53
    Writing application         : mkvmerge v25.0.0 ('Prog Noir') 64-bit
    Writing library             : libebml v1.3.6 + libmatroska v1.4.9

    Video
    ID                          : 1
    Format                      : AVC
    Format/Info                 : Advanced Video Codec
    Format profile              : [email protected]
    Format settings             : CABAC / 2 Ref Frames
    Format settings, CABAC      : Yes
    Format settings, RefFrames  : 2 frames
    Codec ID                    : V_MPEG4/ISO/AVC
    Duration                    : 1 h 26 min
    Bit rate mode               : Variable
    Bit rate                    : 4 847 kb/s
    Maximum bit rate            : 7 200 kb/s
    Width                       : 1 920 pixels
    Height                      : 1 080 pixels
    Display aspect ratio        : 16:9
    Frame rate mode             : Constant
    Frame rate                  : 25.000 FPS
    Color space                 : YUV
    Chroma subsampling          : 4:2:0
    Bit depth                   : 8 bits
    Scan type                   : Progressive
    Bits/(Pixel*Frame)          : 0.093
    Stream size                 : 2.94 GiB (88%)
    Title                       : HD1080p [Web-DL]
    Default                     : Yes
    Forced                      : No

    Audio #1
    ID                          : 2
    Format                      : AC-3
    Format/Info                 : Audio Coding 3
    Format settings, Endianness : Big
    Codec ID                    : A_AC3
    Duration                    : 1 h 26 min
    Bit rate mode               : Constant
    Bit rate                    : 256 kb/s
    Channel(s)                  : 2 channels
    Channel positions           : Front: L R
    Sampling rate               : 48.0 kHz
    Frame rate                  : 31.250 FPS (1536 SPF)
    Bit depth                   : 16 bits
    Compression mode            : Lossy
    Stream size                 : 159 MiB (5%)
    Title                       : AC3_2.0_Capturado_Esp
    Language                    : Spanish
    Service kind                : Complete Main
    Default                     : Yes
    Forced                      : No

    Audio #2
    ID                          : 3
    Format                      : AC-3
    Format/Info                 : Audio Coding 3
    Format settings, Endianness : Big
    Codec ID                    : A_AC3
    Duration                    : 1 h 26 min
    Bit rate mode               : Constant
    Bit rate                    : 384 kb/s
    Channel(s)                  : 6 channels
    Channel positions           : Front: L C R, Side: L R, LFE
    Sampling rate               : 48.0 kHz
    Frame rate                  : 31.250 FPS (1536 SPF)
    Bit depth                   : 16 bits
    Compression mode            : Lossy
    Stream size                 : 239 MiB (7%)
    Title                       : AC3_5.1_Web-DL_Eng
    Language                    : English
    Service kind                : Complete Main
    Default                     : No
    Forced                      : No

  • Peso: 3.33 GiB

Sinopsis

The Boy Downstairs (2018) WEBDL 1080p Latino; Mega, google Drive. Diana regresa a la ciudad de Nueva York después de unos años en el extranjero y encuentra el apartamento perfecto en Brooklyn para un nuevo comienzo. Durante la primera noche en su nuevo hogar, descubre que su exnovio Ben vive en el apartamento debajo del suyo. Después de una reunión incómoda, Diana proclama sus intenciones de una amistad genuina. Pero a medida que se abren viejas heridas, tanto Diana como Ben se ven obligados a enfrentar la verdadera naturaleza de sus sentimientos.

Ficha técnica

  • Titulo original: The Boy Downstairs
  • Fecha de lanzamiento: 16-02-2018 (United States of America)
  • Director: Sophie Brooks
  • Género: Comedia, Drama, HD 1080p, Romance
  • Puntuación: 0.0 0 votos
  • Duración:
    1h 31m

Video trailer de la película

Enlaces de descarga

Rip de Bluray

Descargar The Boy Downstairs (2018) WEBDL 1080p Latino




Aportes de DPeliculasHDmega la pass es:dpeliculashdmega.org Aportes de CinemaniaHD la pass es:cinemaniahdd.com
Guardado en : Comedia , Drama , HD 1080p , Romance

Películas relacionadas

  • Bohemian Rhapsody (2018) [AMZ] WEB-DL 1080p Latino

    2018
    Bohemian Rhapsody (2018) [AMZ] WEB-DL 1080p Latino

    5.0 2h 14m 2018

    Bohemian Rhapsody es una rotunda y sonora celebración de Queen, de su música y de su extraordinario...

    Director: Jack Ravenscroft

    Género: Drama

    Actores: Tom Hollander

  • El Grinch (2018) WEB-DL 1080p Latino

    2018
    El Grinch (2018) WEB-DL 1080p Latino

    0.0 1h 30m 2018

    Cada año, en Navidad, los lugareños perturban su pacífica soledad con celebraciones cada vez más...

    Director: Yarrow Cheney

    Género: Animación

    Actores: Tucker Chandler

  • Bohemian Rhapsody (2018) WEB-DL 1080p Latino

    2018
    Bohemian Rhapsody (2018) WEB-DL 1080p Latino

    5.0 2h 14m 2018

    Bohemian Rhapsody es una rotunda y sonora celebración de Queen, de su música y de su extraordinario...

    Director: Jack Ravenscroft

    Género: Drama

    Actores: Tom Hollander

  • La buena esposa (2018) 1080p Latino

    2018
    La buena esposa (2018) 1080p Latino

    0.0 1h 40m 2018

    Descargar La buena esposa (2018) 1080p Latino, Mega, Google Drive, Torrent. Joan Castleman (Glenn Close)...

    Director: Björn Runge

    Género: Drama

    Actores: Twinnie Lee Moore

Comentarios 0