×

¿Problemas para descargar con Mozilla, EDGE? Deshabilita la opción "Abrir vinculos en una pestaña nueva" tal como lo muestra ésta imagen.

El Niño (2016) Full HD 1080p Latino

504 vistas

Información de El Niño (2016) Full HD 1080p Latino

Datos de la película

  • Calidad: Full 1080p
  • Audio: Español Latino AC3 2.0 DVD - Ingles DTS 5.1 BLURAY
  • Subtitulos: Español Latino PGS - Ingles PGS
  • Resolución: 1920x1080p
  • Formato: MKV
  • Codec: H.264
  • Encoder: CinefiloCool
  • Mediainfo: Clic para Mostrar Datos Ver
  • El Niño (2016) Full HD 1080p Latino-CMHDD.mkv
    Format                      : Matroska
    Format version              : Version 4
    File size                   : 6.09 GiB
    Duration                    : 1 h 37 min
    Overall bit rate            : 8 910 kb/s
    Movie name                  : The Boy (2016) CinemaniaHDD.Net
    Encoded date                : UTC 2020-06-02 17:22:26
    Writing application         : mkvmerge v46.0.0 ('No Deeper Escape') 64-bit
    Writing library             : libebml v1.3.10 + libmatroska v1.5.2
    Attachments                 : CINEMANIAHD.png

    Video
    ID                          : 1
    Format                      : AVC
    Format/Info                 : Advanced Video Codec
    Format profile              : High@L4.1
    Format settings             : CABAC / 4 Ref Frames
    Format settings, CABAC      : Yes
    Format settings, Reference  : 4 frames
    Codec ID                    : V_MPEG4/ISO/AVC
    Duration                    : 1 h 37 min
    Bit rate                    : 7 126 kb/s
    Width                       : 1 920 pixels
    Height                      : 1 080 pixels
    Display aspect ratio        : 16:9
    Frame rate mode             : Constant
    Frame rate                  : 23.976 (24000/1001) FPS
    Color space                 : YUV
    Chroma subsampling          : 4:2:0
    Bit depth                   : 8 bits
    Scan type                   : Progressive
    Bits/(Pixel*Frame)          : 0.143
    Stream size                 : 4.87 GiB (80%)
    Title                       : Full HD1080p [CinemaniaHDD]
    Writing library             : x264 core 157 r2935 545de2f
    Encoding settings           : cabac=1 / ref=4 / deblock=1:0:0 / analyse=0x3:0x133 / me=tesa / subme=11 / psy=1 / psy_rd=1.00:0.00 / mixed_ref=1 / me_range=24 / chroma_me=1 / trellis=2 / 8x8dct=1 / cqm=0 / deadzone=21,11 / fast_pskip=0 / chroma_qp_offset=-2 / threads=24 / lookahead_threads=6 / sliced_threads=0 / nr=0 / decimate=1 / interlaced=0 / bluray_compat=0 / constrained_intra=0 / bframes=16 / b_pyramid=2 / b_adapt=2 / b_bias=0 / direct=3 / weightb=1 / open_gop=0 / weightp=2 / keyint=240 / keyint_min=24 / scenecut=40 / intra_refresh=0 / rc_lookahead=60 / rc=crf / mbtree=1 / crf=19.0 / qcomp=0.60 / qpmin=0 / qpmax=69 / qpstep=4 / vbv_maxrate=62500 / vbv_bufsize=78125 / crf_max=0.0 / nal_hrd=none / filler=0 / ip_ratio=1.40 / aq=1:1.00
    Default                     : Yes
    Forced                      : No
    Color range                 : Limited
    Color primaries             : BT.709
    Transfer characteristics    : BT.709
    Matrix coefficients         : BT.709

    Audio #1
    ID                          : 2
    Format                      : AC-3
    Format/Info                 : Audio Coding 3
    Commercial name             : Dolby Digital
    Codec ID                    : A_AC3
    Duration                    : 1 h 37 min
    Bit rate mode               : Constant
    Bit rate                    : 256 kb/s
    Channel(s)                  : 2 channels
    Channel layout              : L R
    Sampling rate               : 48.0 kHz
    Frame rate                  : 31.250 FPS (1536 SPF)
    Compression mode            : Lossy
    Stream size                 : 179 MiB (3%)
    Title                       : Español Latino [CinemaniaHDD]
    Language                    : Spanish
    Service kind                : Complete Main
    Default                     : Yes
    Forced                      : Yes

    Audio #2
    ID                          : 3
    Format                      : DTS
    Format/Info                 : Digital Theater Systems
    Codec ID                    : A_DTS
    Duration                    : 1 h 37 min
    Bit rate mode               : Constant
    Bit rate                    : 1 509 kb/s
    Channel(s)                  : 6 channels
    Channel layout              : C L R Ls Rs LFE
    Sampling rate               : 48.0 kHz
    Frame rate                  : 93.750 FPS (512 SPF)
    Bit depth                   : 24 bits
    Compression mode            : Lossy
    Stream size                 : 1.03 GiB (17%)
    Title                       : Ingles [CinemaniaHDD]
    Language                    : English
    Default                     : No
    Forced                      : No

    Text #1
    ID                          : 4
    ID in the original source m : 4609 (0x1201)
    Format                      : PGS
    Muxing mode                 : zlib
    Codec ID                    : S_HDMV/PGS
    Codec ID/Info               : Picture based subtitle format used on BDs/HD-DVDs
    Duration                    : 1 h 34 min
    Bit rate                    : 21.5 kb/s
    Count of elements           : 1612
    Stream size                 : 14.5 MiB (0%)
    Title                       : Español-PGS [CinemaniaHDD]
    Language                    : Spanish
    Default                     : No
    Forced                      : No
    Original source medium      : Blu-ray

    Text #2
    ID                          : 5
    ID in the original source m : 4608 (0x1200)
    Format                      : PGS
    Muxing mode                 : zlib
    Codec ID                    : S_HDMV/PGS
    Codec ID/Info               : Picture based subtitle format used on BDs/HD-DVDs
    Duration                    : 1 h 27 min
    Bit rate                    : 31.9 kb/s
    Count of elements           : 2340
    Stream size                 : 20.1 MiB (0%)
    Title                       : Ingles-PGS [CinemaniaHDD]
    Language                    : English
    Default                     : No
    Forced                      : No
    Original source medium      : Blu-ray

    Text #3
    ID                          : 6
    Format                      : UTF-8
    Codec ID                    : S_TEXT/UTF8
    Codec ID/Info               : UTF-8 Plain Text
    Duration                    : 1 h 31 min
    Bit rate                    : 0 b/s
    Count of elements           : 7
    Stream size                 : 176 Bytes (0%)
    Title                       : Forzados-SRT [CinemaniaHDD]
    Language                    : Spanish
    Default                     : Yes
    Forced                      : Yes

    Text #4
    ID                          : 7
    Format                      : UTF-8
    Codec ID                    : S_TEXT/UTF8
    Codec ID/Info               : UTF-8 Plain Text
    Duration                    : 1 h 32 min
    Bit rate                    : 41 b/s
    Count of elements           : 838
    Stream size                 : 28.2 KiB (0%)
    Title                       : Español-SRT [CinemaniaHDD]
    Language                    : Spanish
    Default                     : No
    Forced                      : No

    Menu
    00:00:00.000                : en:Chapter 01
    00:05:49.015                : en:Chapter 02
    00:09:52.258                : en:Chapter 03
    00:14:04.927                : en:Chapter 04
    00:18:13.383                : en:Chapter 05
    00:23:54.975                : en:Chapter 06
    00:27:56.466                : en:Chapter 07
    00:32:18.269                : en:Chapter 08
    00:38:13.833                : en:Chapter 09
    00:41:39.371                : en:Chapter 10
    00:45:05.828                : en:Chapter 11
    00:51:30.670                : en:Chapter 12
    00:54:20.757                : en:Chapter 13
    01:01:26.099                : en:Chapter 14
    01:05:35.890                : en:Chapter 15
    01:09:25.828                : en:Chapter 16
    01:15:54.550                : en:Chapter 17
    01:19:52.954                : en:Chapter 18
    01:27:04.677                : en:Chapter 19
    01:33:20.595                : en:Chapter 20

  • Peso: 6.09 GiB

Sinopsis

Descargar El Niño (2016) Full HD 1080p Latino. Greta (Lauren Cohan) es una joven americana que acepta trabajar como niñera en Inglaterra huyendo de su pasado. Para su sorpresa, el niño al que tiene que cuidar es un muñeco a tamaño real. Además, en el cumplimiento de su trabajo tiene que seguir unas reglas muy estrictas. Cuando se queda sola, Greta desobedece las normas, lo que desencadena una serie de eventos perturbadores que le llevarán a convencerse de que el muñeco podría estar vivo.

Ficha técnica

Video trailer de la película

Enlaces de descarga

Rip de Bluray

Descargar El Niño (2016) Full HD 1080p Latino




Aportes de DPeliculasHDmega la pass es:dpeliculashdmega.org Aportes de CinemaniaHD la pass es:cinemaniahdd.com

Películas relacionadas

  • Transfusion (2023) WEB-DL 4K UHD HDR Latino

    Transfusion (2023) WEB-DL 4K UHD HDR Latino

    2023
    Transfusion (2023) WEB-DL 4K UHD HDR Latino

    1h 45m 2023

    Descargar Transfusion (2023) WEB-DL 4K UHD HDR Latino. Un antiguo agente de las Fuerzas Especiales se...

    Director: Matt Nable

    Género: 4K HDR

    Actores: Trystan Go

  • Transfusion (2023) WEB-DL 1080p Latino

    Transfusion (2023) WEB-DL 1080p Latino

    2023
    Transfusion (2023) WEB-DL 1080p Latino

    1h 45m 2023

    Descargar Transfusion (2023) WEB-DL 1080p Latino. Un antiguo agente de las Fuerzas Especiales se ve empujado...

    Director: Matt Nable

    Género: Crimen

    Actores: Trystan Go

  • Asústame (2020) HD 1080p Latino

    Asústame (2020) HD 1080p Latino

    2020
    Asústame (2020) HD 1080p Latino

    1h 44m 2020

    Descargar Asústame (2020) HD 1080p Latino. Durante un corte de energía, dos extraños cuentan historias...

    Director: Josh Ruben

    Género: Comedia

    Actores: Rebecca Drysdale

descargar El Niño (2016) Full HD 1080p Latino Full 1080p 1080p gratis, El Niño (2016) Full HD 1080p Latino Full 1080p mega 1 link, El Niño (2016) Full HD 1080p Latino Full 1080p pelicula completa, descargar El Niño (2016) Full HD 1080p Latino Full 1080p gratis en mega.

El Niño (2016) Full HD 1080p Latino pelicula full hd, El Niño (2016) Full HD 1080p Latino mega latino, El Niño (2016) Full HD 1080p Latino 4k latino, El Niño (2016) Full HD 1080p Latino pelicula completa, El Niño (2016) Full HD 1080p Latino descargar gratis, descargar El Niño (2016) Full HD 1080p Latino pelicula latino, El Niño (2016) Full HD 1080p Latino 1 link mega, El Niño (2016) Full HD 1080p Latino 1 link google drive, El Niño (2016) Full HD 1080p Latino hd 1080p latino.
Comentarios 0