×

¿Problemas para descargar con Mozilla, EDGE? Deshabilita la opción "Abrir vinculos en una pestaña nueva" tal como lo muestra ésta imagen.

The Boxtrolls (2014) REMUX 4K HDR Latino – CMHDD

246 vistas

Información de The Boxtrolls (2014) REMUX 4K HDR Latino – CMHDD

Datos de la película

  • Calidad: 4K HDR
  • Audio: Se especifica abajo de la Sinopsis
  • Subtitulos: Español Latino PGS
  • Resolución: 3840x2160p
  • Formato: MKV
  • Codec: H.264
  • Encoder: Dracarys
  • Mediainfo: Clic para Mostrar Datos Ver
  • Format                      : Matroska
    Format version              : Version 4
    File size                   : 55.7 GiB
    Duration                    : 1 h 36 min
    Overall bit rate mode       : Variable
    Overall bit rate            : 82.9 Mb/s
    Movie name                  : The Boxtrolls (2014) REMUX 4K HDR Latino - CMHDD
    Encoded date                : UTC 2023-03-05 00:58:18
    Writing application         : mkvmerge v47.0.0 ('Black Flag') 64-bit
    Writing library             : libebml v1.3.10 + libmatroska v1.5.2
    Cover                       : Yes
    Attachments                 : cover.jpg

    Video
    ID                          : 1
    ID in the original source m : 4113 (0x1011)
    Format                      : HEVC
    Format/Info                 : High Efficiency Video Coding
    Format profile              : Main 10@L5.1@High
    HDR format                  : SMPTE ST 2086, HDR10 compatible
    Codec ID                    : V_MPEGH/ISO/HEVC
    Duration                    : 1 h 36 min
    Bit rate                    : 76.5 Mb/s
    Width                       : 3 840 pixels
    Height                      : 2 160 pixels
    Display aspect ratio        : 16:9
    Frame rate mode             : Constant
    Frame rate                  : 24.000 FPS
    Color space                 : YUV
    Chroma subsampling          : 4:2:0 (Type 2)
    Bit depth                   : 10 bits
    Bits/(Pixel*Frame)          : 0.384
    Stream size                 : 51.4 GiB (92%)
    Default                     : Yes
    Forced                      : No
    Color range                 : Limited
    Color primaries             : BT.2020
    Transfer characteristics    : PQ
    Matrix coefficients         : BT.2020 non-constant
    Mastering display color pri : Display P3
    Mastering display luminance : min: 0.0001 cd/m2, max: 1000 cd/m2
    Maximum Content Light Level : 410 cd/m2
    Maximum Frame-Average Light : 197 cd/m2
    Original source medium      : Blu-ray

    Audio #1
    ID                          : 2
    ID in the original source m : 4352 (0x1100)
    Format                      : MLP FBA 16-ch
    Format/Info                 : Meridian Lossless Packing FBA with 16-channel presentation
    Commercial name             : Dolby TrueHD with Dolby Atmos
    Codec ID                    : A_TRUEHD
    Duration                    : 1 h 36 min
    Bit rate mode               : Variable
    Bit rate                    : 4 463 kb/s
    Maximum bit rate            : 7 488 kb/s
    Channel(s)                  : 8 channels
    Channel layout              : L R C LFE Ls Rs Lb Rb
    Sampling rate               : 48.0 kHz
    Frame rate                  : 1 200.000 FPS (40 SPF)
    Compression mode            : Lossless
    Stream size                 : 3.00 GiB (5%)
    Language                    : English
    Default                     : No
    Forced                      : No
    Original source medium      : Blu-ray
    Number of dynamic objects   : 11
    Bed channel count           : 1 channel
    Bed channel configuration   : LFE

    Audio #2
    ID                          : 3
    ID in the original source m : 4352 (0x1100)
    Format                      : AC-3
    Format/Info                 : Audio Coding 3
    Commercial name             : Dolby Digital
    Codec ID                    : A_AC3
    Duration                    : 1 h 36 min
    Bit rate mode               : Constant
    Bit rate                    : 384 kb/s
    Channel(s)                  : 6 channels
    Channel layout              : L R C LFE Ls Rs
    Sampling rate               : 48.0 kHz
    Frame rate                  : 31.250 FPS (1536 SPF)
    Compression mode            : Lossy
    Stream size                 : 264 MiB (0%)
    Language                    : English
    Service kind                : Complete Main
    Default                     : No
    Forced                      : No
    Original source medium      : Blu-ray

    Audio #3
    ID                          : 4
    ID in the original source m : 4353 (0x1101)
    Format                      : DTS
    Format/Info                 : Digital Theater Systems
    Codec ID                    : A_DTS
    Duration                    : 1 h 36 min
    Bit rate mode               : Constant
    Bit rate                    : 1 509 kb/s
    Channel(s)                  : 6 channels
    Channel layout              : C L R Ls Rs LFE
    Sampling rate               : 48.0 kHz
    Frame rate                  : 93.750 FPS (512 SPF)
    Bit depth                   : 24 bits
    Compression mode            : Lossy
    Stream size                 : 1.01 GiB (2%)
    Language                    : Spanish
    Default                     : Yes
    Forced                      : No
    Original source medium      : Blu-ray

    Text #1
    ID                          : 5
    ID in the original source m : 4769 (0x12A1)
    Format                      : PGS
    Muxing mode                 : zlib
    Codec ID                    : S_HDMV/PGS
    Codec ID/Info               : Picture based subtitle format used on BDs/HD-DVDs
    Duration                    : 1 h 30 min
    Bit rate                    : 30.2 kb/s
    Frame rate                  : 0.474 FPS
    Count of elements           : 2584
    Stream size                 : 19.7 MiB (0%)
    Language                    : Spanish
    Default                     : No
    Forced                      : No
    Original source medium      : Blu-ray

    Text #2
    ID                          : 6
    ID in the original source m : 4771 (0x12A3)
    Format                      : PGS
    Muxing mode                 : zlib
    Codec ID                    : S_HDMV/PGS
    Codec ID/Info               : Picture based subtitle format used on BDs/HD-DVDs
    Duration                    : 1 h 25 min
    Bit rate                    : 797 b/s
    Frame rate                  : 0.012 FPS
    Count of elements           : 62
    Stream size                 : 498 KiB (0%)
    Language                    : Spanish
    Default                     : No
    Forced                      : No
    Original source medium      : Blu-ray

    Menu
    00:00:00.000                : en:Capítulo 01
    00:07:52.416                : en:Capítulo 02
    00:16:07.541                : en:Capítulo 03
    00:23:55.208                : en:Capítulo 04
    00:32:25.041                : en:Capítulo 05
    00:42:13.208                : en:Capítulo 06
    00:50:06.958                : en:Capítulo 07
    00:57:42.833                : en:Capítulo 08
    01:04:02.041                : en:Capítulo 09
    01:12:20.000                : en:Capítulo 10
    01:19:44.583                : en:Capítulo 11
    01:25:26.916                : en:Capítulo 12

  • Peso: 55.7 GiB

Sinopsis

Cheesebridge (Puentequeso) es una elegante ciudad de la era posvictorinana, obsesionada por el dinero, la clase y el más delicioso de los quesos apestosos. Debajo de sus encantadoras calles adoquinadas viven los Boxtrolls, unos monstruos que salen de las alcantarillas por la noche para hacerse con los bienes más preciados de los habitantes: sus hijos y sus quesos.

Ficha técnica

Video trailer de la película

Enlaces de descarga

Rip de Bluray

Descargar The Boxtrolls (2014) REMUX 4K HDR Latino – CMHDD


Aportes de DPeliculasHDmega la pass es:dpeliculashdmega.org Aportes de CinemaniaHD la pass es:cinemaniahdd.com Aportes recientes:cinemaniahdd.net
Guardado en : Animación , Comedia , Familia , Fantasía

Películas relacionadas

descargar The Boxtrolls (2014) REMUX 4K HDR Latino – CMHDD 4K HDR 1080p gratis, The Boxtrolls (2014) REMUX 4K HDR Latino – CMHDD 4K HDR mega 1 link, The Boxtrolls (2014) REMUX 4K HDR Latino – CMHDD 4K HDR pelicula completa, descargar The Boxtrolls (2014) REMUX 4K HDR Latino – CMHDD 4K HDR gratis en mega.

The Boxtrolls (2014) REMUX 4K HDR Latino – CMHDD pelicula full hd, The Boxtrolls (2014) REMUX 4K HDR Latino – CMHDD mega latino, The Boxtrolls (2014) REMUX 4K HDR Latino – CMHDD 4k latino, The Boxtrolls (2014) REMUX 4K HDR Latino – CMHDD pelicula completa, The Boxtrolls (2014) REMUX 4K HDR Latino – CMHDD descargar gratis, descargar The Boxtrolls (2014) REMUX 4K HDR Latino – CMHDD pelicula latino, The Boxtrolls (2014) REMUX 4K HDR Latino – CMHDD 1 link mega, The Boxtrolls (2014) REMUX 4K HDR Latino – CMHDD 1 link google drive, The Boxtrolls (2014) REMUX 4K HDR Latino – CMHDD hd 1080p latino.
Comentarios 0