The Bourne Supremacy (2004) Full 1080p Latino

1.324 vistas
1 estrella2 estrellas3 estrellas4 estrellas5 estrellas (1 votos, promedio: 5,00 de 5)
Cargando…

Información de The Bourne Supremacy (2004) Full 1080p Latino

Datos de la película

  • Calidad: Full 1080p
  • Audio: Español Latino DTS 5.1 BLURAY - Ingles DTS 5.1 BLURAY
  • Subtitulos: Español Latino PGS - Ingles PGS
  • Resolución: 1920X1080
  • Formato: MKV
  • Codec: H.264
  • Encoder: Dpelis
  • Mediainfo: Clic para Mostrar Datos Ver
  • Format                                   : Matroska
    Format version                           : Version 4 / Version 2
    File size                                : 8.58 GiB
    Duration                                 : 1 h 48 min
    Overall bit rate                         : 11.3 Mb/s
    Movie name                               : dpeliculashdmega.org
    Encoded date                             : UTC 2017-11-17 03:29:15 / UTC 2017-11-15T14:48:02Z
    Writing application                      : mkvmerge v15.0.0 ('Duel with the Devil') 64-bit
    Writing library                          : libebml v1.3.5 + libmatroska v1.4.5 / Lavf57.7.2

    Video
    ID                                       : 1
    Format                                   : AVC
    Format/Info                              : Advanced Video Codec
    Format profile                           : High@L4.1
    Format settings                          : CABAC / 4 Ref Frames
    Format settings, CABAC                   : Yes
    Format settings, RefFrames               : 4 frames
    Codec ID                                 : V_MPEG4/ISO/AVC
    Duration                                 : 1 h 48 min
    Bit rate                                 : 8 811 kb/s
    Width                                    : 1 920 pixels
    Height                                   : 1 080 pixels
    Display aspect ratio                     : 16:9
    Frame rate mode                          : Constant
    Frame rate                               : 23.976 (24000/1001) FPS
    Color space                              : YUV
    Chroma subsampling                       : 4:2:0
    Bit depth                                : 8 bits
    Scan type                                : Progressive
    Bits/(Pixel*Frame)                       : 0.177
    Stream size                              : 6.68 GiB (78%)
    Title                                    : The Bourne Supremacy (2004) Full 1080p Latino
    Writing library                          : x264 core 148 r2708 86b7198
    Encoding settings                        : cabac=1 / ref=4 / deblock=1:0:0 / analyse=0x3:0x133 / me=esa / subme=10 / psy=1 / psy_rd=1.00:0.00 / mixed_ref=1 / me_range=24 / chroma_me=1 / trellis=2 / 8x8dct=1 / cqm=0 / deadzone=21,11 / fast_pskip=1 / chroma_qp_offset=-2 / threads=34 / lookahead_threads=5 / sliced_threads=0 / nr=0 / decimate=1 / interlaced=0 / bluray_compat=0 / constrained_intra=0 / bframes=8 / b_pyramid=2 / b_adapt=2 / b_bias=0 / direct=3 / weightb=1 / open_gop=0 / weightp=2 / keyint=240 / keyint_min=24 / scenecut=40 / intra_refresh=0 / rc_lookahead=60 / rc=crf / mbtree=1 / crf=20.0 / qcomp=0.60 / qpmin=0 / qpmax=69 / qpstep=4 / vbv_maxrate=62500 / vbv_bufsize=78125 / crf_max=0.0 / nal_hrd=none / filler=0 / ip_ratio=1.40 / aq=1:1.00
    Language                                 : English
    Default                                  : Yes
    Forced                                   : No
    Color range                              : Limited
    Color primaries                          : BT.709
    Transfer characteristics                 : BT.709
    Matrix coefficients                      : BT.709
    Statistics Tags Issue                    : mkvmerge v15.0.0 ('Duel with the Devil') 64-bit 2017-11-17 03:29:15 / mkvmerge v15.0.0 ('Duel with the Devil') 64-bit 2017-11-17 03:29:15 / UTC 2017-11-15T14:48:02Z
    FromStats_BitRate                        : 9018882
    FromStats_Duration                       : 01:48:31.505000000
    FromStats_FrameCount                     : 156120
    FromStats_StreamSize                     : 7340812364

    Audio #1
    ID                                       : 2
    Format                                   : DTS
    Format/Info                              : Digital Theater Systems
    Mode                                     : 16
    Format settings, Endianness              : Big
    Codec ID                                 : A_DTS
    Duration                                 : 1 h 48 min
    Bit rate mode                            : Constant
    Bit rate                                 : 768 kb/s
    Channel(s)                               : 6 channels
    Channel positions                        : Front: L C R, Side: L R, LFE
    Sampling rate                            : 48.0 kHz
    Frame rate                               : 93.750 FPS (512 SPF)
    Bit depth                                : 24 bits
    Compression mode                         : Lossy
    Stream size                              : 596 MiB (7%)
    Title                                    : Latino-DTS
    Language                                 : Spanish
    Default                                  : Yes
    Forced                                   : No
    Statistics Tags Issue                    : mkvmerge v15.0.0 ('Duel with the Devil') 64-bit 2017-11-17 03:29:15 / mkvmerge v15.0.0 ('Duel with the Devil') 64-bit 2017-11-17 03:29:15 / UTC 2017-11-15T14:48:02Z
    FromStats_BitRate                        : 767999
    FromStats_Duration                       : 01:48:31.510000000
    FromStats_FrameCount                     : 610454
    FromStats_StreamSize                     : 625104896

    Audio #2
    ID                                       : 3
    Format                                   : DTS
    Format/Info                              : Digital Theater Systems
    Mode                                     : 16
    Format settings, Endianness              : Big
    Codec ID                                 : A_DTS
    Duration                                 : 1 h 48 min
    Bit rate mode                            : Constant
    Bit rate                                 : 1 509 kb/s
    Channel(s)                               : 6 channels
    Channel positions                        : Front: L C R, Side: L R, LFE
    Sampling rate                            : 48.0 kHz
    Frame rate                               : 93.750 FPS (512 SPF)
    Bit depth                                : 24 bits
    Compression mode                         : Lossy
    Stream size                              : 1.14 GiB (13%)
    Title                                    : Ingles-DTS
    Language                                 : English
    Default                                  : No
    Forced                                   : No
    Statistics Tags Issue                    : mkvmerge v15.0.0 ('Duel with the Devil') 64-bit 2017-11-17 03:29:15 / mkvmerge v15.0.0 ('Duel with the Devil') 64-bit 2017-11-17 03:29:15 / UTC 2017-11-15T14:48:02Z
    FromStats_BitRate                        : 1508999
    FromStats_Duration                       : 01:48:31.510000000
    FromStats_FrameCount                     : 610454
    FromStats_StreamSize                     : 1228233448

    Text #1
    ID                                       : 4
    Format                                   : PGS
    Muxing mode                              : zlib
    Codec ID                                 : S_HDMV/PGS
    Codec ID/Info                            : Picture based subtitle format used on BDs/HD-DVDs
    Title                                    : PGS-Forzados
    Language                                 : Spanish
    Default                                  : Yes
    Forced                                   : No
    Statistics Tags Issue                    : mkvmerge v15.0.0 ('Duel with the Devil') 64-bit 2017-11-17 03:29:15 / mkvmerge v15.0.0 ('Duel with the Devil') 64-bit 2017-11-17 03:29:15 / UTC 2017-11-15T14:48:02Z
    FromStats_BitRate                        : 1462
    FromStats_Duration                       : 01:29:37.623000000
    FromStats_FrameCount                     : 94
    FromStats_StreamSize                     : 982989

    Text #2
    ID                                       : 5
    Format                                   : PGS
    Muxing mode                              : zlib
    Codec ID                                 : S_HDMV/PGS
    Codec ID/Info                            : Picture based subtitle format used on BDs/HD-DVDs
    Title                                    : PGS-Completos
    Language                                 : Spanish
    Default                                  : No
    Forced                                   : No
    Statistics Tags Issue                    : mkvmerge v15.0.0 ('Duel with the Devil') 64-bit 2017-11-17 03:29:15 / mkvmerge v15.0.0 ('Duel with the Devil') 64-bit 2017-11-17 03:29:15 / UTC 2017-11-15T14:48:02Z
    FromStats_BitRate                        : 23587
    FromStats_Duration                       : 01:40:48.250000000
    FromStats_FrameCount                     : 1488
    FromStats_StreamSize                     : 17832969

    Text #3
    ID                                       : 6
    Format                                   : PGS
    Muxing mode                              : zlib
    Codec ID                                 : S_HDMV/PGS
    Codec ID/Info                            : Picture based subtitle format used on BDs/HD-DVDs
    Title                                    : PGS
    Language                                 : English
    Default                                  : No
    Forced                                   : No
    Statistics Tags Issue                    : mkvmerge v15.0.0 ('Duel with the Devil') 64-bit 2017-11-17 03:29:15 / mkvmerge v15.0.0 ('Duel with the Devil') 64-bit 2017-11-17 03:29:15 / UTC 2017-11-15T14:48:02Z
    FromStats_BitRate                        : 26566
    FromStats_Duration                       : 01:40:48.333000000
    FromStats_FrameCount                     : 1597
    FromStats_StreamSize                     : 20085567

    Menu
    00:00:00.000                             : :Chapter 1
    00:04:31.772                             : :Chapter 2
    00:09:45.794                             : :Chapter 3
    00:15:24.424                             : :Chapter 4
    00:22:02.780                             : :Chapter 5
    00:23:35.623                             : :Chapter 6
    00:29:14.044                             : :Chapter 7
    00:35:14.321                             : :Chapter 8
    00:38:06.326                             : :Chapter 9
    00:44:58.738                             : :Chapter 10
    00:48:01.379                             : :Chapter 11
    00:52:52.503                             : :Chapter 12
    00:55:27.115                             : :Chapter 13
    01:01:02.576                             : :Chapter 14
    01:02:40.382                             : :Chapter 15
    01:06:52.634                             : :Chapter 16
    01:13:54.221                             : :Chapter 17
    01:18:13.856                             : :Chapter 18
    01:24:53.130                             : :Chapter 19
    01:27:43.467                             : :Chapter 20
    01:33:06.873                             : :Chapter 21
    01:34:51.561                             : :Chapter 22
    01:40:15.343                             : :Chapter 23
    01:42:00.948                             : :Chapter 24
    01:48:25.874                             : :Chapter 25

  • Peso: 8.58 GiB

Sinopsis

El pasado de Jason Bourne vuelve por él. En la segunda entrega de la saga de tres películas basadas en la vida de Jason Bourne, un ex agente de la CIA que pierde la memoria y mientras lucha por recuperarla y lograr saber quién es en realidad, se ve involucrado en una red de espionaje y manipulación de gobiernos por parte de los Estados Unidos donde será perseguido por asesinos profesionales, mercenarios paramilitares, y ex compañeros de la CIA.La película comienza en Goa, India, donde Jason y Marie se han ido a vivir para esconderse de Treadstone, pero allí un antiguo agente de la compañía les localiza y persigue. Jason Bourne comienza su aventura para descubrir su pasado recordando parte de este, y persiguiendo al agente, que además se está haciendo pasar por él.

Ficha técnica

Video trailer de la película

Enlaces de descarga

Rip de Bluray

Descargar The Bourne Supremacy (2004) Full 1080p Latino




Aportes de DPeliculasHDmega la pass es:dpeliculashdmega.org Aportes de CinemaniaHD la pass es:cinemaniahdd.com

Películas relacionadas

  • Arrow (2018) Temporada 07 AMZN Web-DL 1080p Latino

    2012
    Arrow (2018) Temporada 07 AMZN Web-DL 1080p Latino

    2.7 0h 42m 2012

    Descargar Arrow Temporada 07 AMZN Web-DL 1080p Latino; Mega, Google Drive. No ha habido escasez de llamadas...

    Director: Marc Guggenheim

    Género: Action & Adventure

    Actores: Stephen Amell

  • El Justiciero 2 (2018) 1080p Latino

    2018
    El Justiciero 2 (2018) 1080p Latino

    1.0 2h 0m 2018

    Descargar El Justiciero 2 (2018) 1080p Latino, Mega, Google Drive. Robert McCall (Denzel Washington)...

    Director: Donald Sparks

    Género: Acción

    Actores: Wesley Pereira

  • Tiger (2018) 1080p Latino

    2018
    Tiger (2018) 1080p Latino

    1.0 1h 40m 2018

    Descargar Tiger (2018) 1080p Latino, Mega, Google Drive. Tiger se inspira en la historia real de Pardeep...

    Director: Alister Grierson

    Género: Drama

    Actores: Prem Singh

Comentarios 0