×

¿Problemas para descargar con Mozilla, EDGE? Deshabilita la opción "Abrir vinculos en una pestaña nueva" tal como lo muestra ésta imagen.

The Bourne Legacy (2012) REMUX 4K HDR Latino – CMHDD

301 vistas

Información de The Bourne Legacy (2012) REMUX 4K HDR Latino – CMHDD

Datos de la película

  • Calidad: 4K HDR
  • Audio: Español Latino DTS 5.1 BLURAY - Ingles DTS-HD Master 7.1 BLURAY
  • Subtitulos: Español Latino PGS
  • Resolución: 3840x2160
  • Formato: MKV
  • Codec: HEVC
  • Encoder: Dracarys
  • Mediainfo: Clic para Mostrar Datos Ver
  • Format                      : Matroska
    Format version              : Version 4
    File size                   : 52.0 GiB
    Duration                    : 2 h 15 min
    Overall bit rate mode       : Variable
    Overall bit rate            : 55.2 Mb/s
    Movie name                  : The Bourne Legacy (2012) REMUX 4K HDR Latino - CMHDD
    Encoded date                : UTC 2021-03-11 22:56:12
    Writing application         : mkvmerge v51.0.0 ('I Wish') 64-bit
    Writing library             : libebml v1.4.0 + libmatroska v1.6.2

    Video
    ID                          : 1
    Format                      : HEVC
    Format/Info                 : High Efficiency Video Coding
    Format profile              : Main 10@L5.1@High
    HDR format                  : SMPTE ST 2086, HDR10 compatible
    Codec ID                    : V_MPEGH/ISO/HEVC
    Duration                    : 2 h 14 min
    Bit rate                    : 50.1 Mb/s
    Width                       : 3 840 pixels
    Height                      : 2 160 pixels
    Display aspect ratio        : 16:9
    Frame rate mode             : Constant
    Frame rate                  : 23.976 (24000/1001) FPS
    Color space                 : YUV
    Chroma subsampling          : 4:2:0 (Type 2)
    Bit depth                   : 10 bits
    Bits/(Pixel*Frame)          : 0.252
    Stream size                 : 47.2 GiB (91%)
    Default                     : Yes
    Forced                      : No
    Color range                 : Limited
    Color primaries             : BT.2020
    Transfer characteristics    : PQ
    Matrix coefficients         : BT.2020 non-constant
    Mastering display color pri : Display P3
    Mastering display luminance : min: 0.0000 cd/m2, max: 1000 cd/m2

    Audio #1
    ID                          : 2
    Format                      : DTS
    Format/Info                 : Digital Theater Systems
    Codec ID                    : A_DTS
    Duration                    : 2 h 15 min
    Bit rate mode               : Constant
    Bit rate                    : 768 kb/s
    Channel(s)                  : 6 channels
    Channel layout              : C L R Ls Rs LFE
    Sampling rate               : 48.0 kHz
    Frame rate                  : 93.750 FPS (512 SPF)
    Bit depth                   : 24 bits
    Compression mode            : Lossy
    Delay relative to video     : -8 ms
    Stream size                 : 742 MiB (1%)
    Language                    : Spanish
    Default                     : Yes
    Forced                      : No

    Audio #2
    ID                          : 3
    Format                      : DTS XLL X
    Format/Info                 : Digital Theater Systems
    Commercial name             : DTS-HD Master Audio
    Codec ID                    : A_DTS
    Duration                    : 2 h 14 min
    Bit rate mode               : Variable
    Bit rate                    : 4 324 kb/s
    Channel(s)                  : 8 channels
    Channel(s)_Original         : Object Based
    ChannelLayout_Original      : Object Based
    Sampling rate               : 48.0 kHz
    Frame rate                  : 93.750 FPS (512 SPF)
    Bit depth                   : 24 bits
    Stream size                 : 4.08 GiB (8%)
    Language                    : English
    Default                     : No
    Forced                      : No

    Text #1
    ID                          : 4
    Format                      : PGS
    Muxing mode                 : zlib
    Codec ID                    : S_HDMV/PGS
    Codec ID/Info               : Picture based subtitle format used on BDs/HD-DVDs
    Duration                    : 1 h 40 min
    Bit rate                    : 501 b/s
    Count of elements           : 28
    Stream size                 : 368 KiB (0%)
    Language                    : Spanish
    Default                     : Yes
    Forced                      : No

    Text #2
    ID                          : 5
    Format                      : PGS
    Muxing mode                 : zlib
    Codec ID                    : S_HDMV/PGS
    Codec ID/Info               : Picture based subtitle format used on BDs/HD-DVDs
    Duration                    : 2 h 4 min
    Bit rate                    : 28.1 kb/s
    Count of elements           : 2798
    Stream size                 : 25.0 MiB (0%)
    Language                    : Spanish
    Default                     : No
    Forced                      : No

  • Peso: 52.0 GiB

Sinopsis

En ‘El legado de Bourne’, el director y guionista Tony Gilroy amplía el universo de Bourne, creado por Robert Ludlum, con una historia original que revela una conspiración mucho mayor: Aaron Cross (Jeremy Renner) es uno de los seis agentes secretos creados por el programa Outcome del Departamento de Defensa, que han sido diseñados para funcionar en solitario en misiones altamente arriesgadas de larga duración. El estudio del comportamiento que dio pie al programa Treadstone ha evolucionado mucho, pero dado que ambos programas comparten el mismo origen, Outcome se convierte en un peligro cuando la historia de Bourne pasa al dominio público.

Ficha técnica

Video trailer de la película

Enlaces de descarga

Rip de Bluray

Descargar The Bourne Legacy (2012) REMUX 4K HDR Latino – CMHDD


Aportes de DPeliculasHDmega la pass es:dpeliculashdmega.org Aportes de CinemaniaHD la pass es:cinemaniahdd.com
Guardado en : Acción , Suspenso

Películas relacionadas

  • El Cuartel Secreto (2022) WEB-DL 4K UHD HDR Latino

    El Cuartel Secreto (2022) WEB-DL 4K UHD HDR Latino

    2022
    El Cuartel Secreto (2022) WEB-DL 4K UHD HDR Latino

    1h 44m 2022

    Descargar El Cuartel Secreto (2022) WEB-DL 4K UHD HDR Latino. Mientras pasan el rato después de la escuela,...

    Director: Henry Joost

    Género: 4K HDR

    Actores: Zeb Slone

  • El Cuartel Secreto (2022) WEB-DL 1080p Latino

    El Cuartel Secreto (2022) WEB-DL 1080p Latino

    2022
    El Cuartel Secreto (2022) WEB-DL 1080p Latino

    1h 44m 2022

    Descargar El Cuartel Secreto (2022) WEB-DL 1080p Latino. Mientras pasan el rato después de la escuela,...

    Director: Henry Joost

    Género: Acción

    Actores: Zeb Slone

  • Men in Black (1997) REMUX 4K HDR Latino – CMHDD

    Men in Black (1997) REMUX 4K HDR Latino – CMHDD

    1997
    Men in Black (1997) REMUX 4K HDR Latino – CMHDD

    1h 34m 1997

    Durante muchos años los extraterrestres han vivido en la Tierra, mezclados con los humanos, sin que...

    Director: Tyrone S. Walker

    Género: Acción

    Actores: Willie C. Carpenter

  • La Máquina infernal (2022) WEB-DL 1080p Latino

    La Máquina infernal (2022) WEB-DL 1080p Latino

    2022
    La Máquina infernal (2022) WEB-DL 1080p Latino

    1h 47m 2022

    Descargar La Máquina infernal (2022) WEB-DL 1080p Latino. Un fan obsesivo saca de su escondite al solitario...

    Director: Andrew Hunt

    Género: Suspenso

    Actores: Rocco Salata

  • Borrego: Sal Del Camino (2022) HD 1080p Latino

    Borrego: Sal Del Camino (2022) HD 1080p Latino

    2022
    Borrego: Sal Del Camino (2022) HD 1080p Latino

    1h 42m 2022

    Descargar Borrego: Sal Del Camino (2022) HD 1080p Latino. Una joven botánica se traslada a un pequeño...

    Director: Jesse Harris

    Género: Crimen

    Actores: Olivia Trujillo

descargar The Bourne Legacy (2012) REMUX 4K HDR Latino – CMHDD 4K HDR 1080p gratis, The Bourne Legacy (2012) REMUX 4K HDR Latino – CMHDD 4K HDR mega 1 link, The Bourne Legacy (2012) REMUX 4K HDR Latino – CMHDD 4K HDR pelicula completa, descargar The Bourne Legacy (2012) REMUX 4K HDR Latino – CMHDD 4K HDR gratis en mega.

The Bourne Legacy (2012) REMUX 4K HDR Latino – CMHDD pelicula full hd, The Bourne Legacy (2012) REMUX 4K HDR Latino – CMHDD mega latino, The Bourne Legacy (2012) REMUX 4K HDR Latino – CMHDD 4k latino, The Bourne Legacy (2012) REMUX 4K HDR Latino – CMHDD pelicula completa, The Bourne Legacy (2012) REMUX 4K HDR Latino – CMHDD descargar gratis, descargar The Bourne Legacy (2012) REMUX 4K HDR Latino – CMHDD pelicula latino, The Bourne Legacy (2012) REMUX 4K HDR Latino – CMHDD 1 link mega, The Bourne Legacy (2012) REMUX 4K HDR Latino – CMHDD 1 link google drive, The Bourne Legacy (2012) REMUX 4K HDR Latino – CMHDD hd 1080p latino.
Comentarios 2
  • Aelito - 14 marzo, 2021

    Para cuando lo pondran publico muero por descragar

    • Dracarys - 14 marzo, 2021

      Solo VIP