The Bourne Identity: El caso Bourne (2002) Full 1080p Latino

1.992 vistas
1 estrella2 estrellas3 estrellas4 estrellas5 estrellas (1 votos, promedio: 5,00 de 5)
Cargando…

Información de The Bourne Identity: El caso Bourne (2002) Full 1080p Latino

Datos de la película

  • Calidad: Full 1080p
  • Audio: Español Latino DTS 5.1 BLURAY - Ingles DTS 5.1 BLURAY
  • Subtitulos: Español Latino PGS - Ingles PGS
  • Resolución: 1920X1080
  • Formato: MKV
  • Codec: H.264
  • Encoder: Dpelis
  • Mediainfo: Clic para Mostrar Datos Ver
  • Format                                   : Matroska
    Format version                           : Version 4 / Version 2
    File size                                : 6.28 GiB
    Duration                                 : 1 h 58 min
    Overall bit rate                         : 7 600 kb/s
    Movie name                               : dpeliculashdmega.org
    Encoded date                             : UTC 2017-11-20 03:14:26 / UTC 2017-11-19T20:28:51Z
    Writing application                      : mkvmerge v15.0.0 ('Duel with the Devil') 64-bit
    Writing library                          : libebml v1.3.5 + libmatroska v1.4.5 / Lavf57.7.2

    Video
    ID                                       : 1
    Format                                   : AVC
    Format/Info                              : Advanced Video Codec
    Format profile                           : [email protected]
    Format settings                          : CABAC / 4 Ref Frames
    Format settings, CABAC                   : Yes
    Format settings, RefFrames               : 4 frames
    Codec ID                                 : V_MPEG4/ISO/AVC
    Duration                                 : 1 h 58 min
    Bit rate                                 : 5 172 kb/s
    Width                                    : 1 920 pixels
    Height                                   : 1 080 pixels
    Display aspect ratio                     : 16:9
    Frame rate mode                          : Constant
    Frame rate                               : 23.976 (24000/1001) FPS
    Color space                              : YUV
    Chroma subsampling                       : 4:2:0
    Bit depth                                : 8 bits
    Scan type                                : Progressive
    Bits/(Pixel*Frame)                       : 0.104
    Stream size                              : 4.27 GiB (68%)
    Title                                    : The Bourne Identity El caso Bourne (2002) Full 1080p Latino
    Writing library                          : x264 core 148 r2708 86b7198
    Encoding settings                        : cabac=1 / ref=4 / deblock=1:0:0 / analyse=0x3:0x133 / me=esa / subme=10 / psy=1 / psy_rd=1.00:0.00 / mixed_ref=1 / me_range=24 / chroma_me=1 / trellis=2 / 8x8dct=1 / cqm=0 / deadzone=21,11 / fast_pskip=1 / chroma_qp_offset=-2 / threads=34 / lookahead_threads=5 / sliced_threads=0 / nr=0 / decimate=1 / interlaced=0 / bluray_compat=0 / constrained_intra=0 / bframes=8 / b_pyramid=2 / b_adapt=2 / b_bias=0 / direct=3 / weightb=1 / open_gop=0 / weightp=2 / keyint=240 / keyint_min=24 / scenecut=40 / intra_refresh=0 / rc_lookahead=60 / rc=crf / mbtree=1 / crf=20.0 / qcomp=0.60 / qpmin=0 / qpmax=69 / qpstep=4 / vbv_maxrate=62500 / vbv_bufsize=78125 / crf_max=0.0 / nal_hrd=none / filler=0 / ip_ratio=1.40 / aq=1:1.00
    Language                                 : English
    Default                                  : Yes
    Forced                                   : No
    Color range                              : Limited
    Color primaries                          : BT.709
    Transfer characteristics                 : BT.709
    Matrix coefficients                      : BT.709
    Statistics Tags Issue                    : mkvmerge v15.0.0 ('Duel with the Devil') 64-bit 2017-11-20 03:14:26 / mkvmerge v15.0.0 ('Duel with the Devil') 64-bit 2017-11-20 03:14:26 / UTC 2017-11-19T20:28:51Z
    FromStats_BitRate                        : 5308470
    FromStats_Duration                       : 01:58:17.215000000
    FromStats_FrameCount                     : 170163
    FromStats_StreamSize                     : 4709419656

    Audio #1
    ID                                       : 2
    Format                                   : DTS
    Format/Info                              : Digital Theater Systems
    Mode                                     : 16
    Format settings, Endianness              : Big
    Codec ID                                 : A_DTS
    Duration                                 : 1 h 58 min
    Bit rate mode                            : Constant
    Bit rate                                 : 768 kb/s
    Channel(s)                               : 6 channels
    Channel positions                        : Front: L C R, Side: L R, LFE
    Sampling rate                            : 48.0 kHz
    Frame rate                               : 93.750 FPS (512 SPF)
    Bit depth                                : 24 bits
    Compression mode                         : Lossy
    Stream size                              : 650 MiB (10%)
    Title                                    : Latino-DTS
    Language                                 : Spanish
    Default                                  : Yes
    Forced                                   : No
    Statistics Tags Issue                    : mkvmerge v15.0.0 ('Duel with the Devil') 64-bit 2017-11-20 03:14:26 / mkvmerge v15.0.0 ('Duel with the Devil') 64-bit 2017-11-20 03:14:26 / UTC 2017-11-19T20:28:51Z
    FromStats_BitRate                        : 768000
    FromStats_Duration                       : 01:58:17.429000000
    FromStats_FrameCount                     : 665384
    FromStats_StreamSize                     : 681353216

    Audio #2
    ID                                       : 3
    Format                                   : DTS
    Format/Info                              : Digital Theater Systems
    Mode                                     : 16
    Format settings, Endianness              : Big
    Codec ID                                 : A_DTS
    Duration                                 : 1 h 58 min
    Bit rate mode                            : Constant
    Bit rate                                 : 1 509 kb/s
    Channel(s)                               : 6 channels
    Channel positions                        : Front: L C R, Side: L R, LFE
    Sampling rate                            : 48.0 kHz
    Frame rate                               : 93.750 FPS (512 SPF)
    Bit depth                                : 24 bits
    Compression mode                         : Lossy
    Stream size                              : 1.25 GiB (20%)
    Title                                    : Ingles-DTS
    Language                                 : English
    Default                                  : No
    Forced                                   : No
    Statistics Tags Issue                    : mkvmerge v15.0.0 ('Duel with the Devil') 64-bit 2017-11-20 03:14:26 / mkvmerge v15.0.0 ('Duel with the Devil') 64-bit 2017-11-20 03:14:26 / UTC 2017-11-19T20:28:51Z
    FromStats_BitRate                        : 1508999
    FromStats_Duration                       : 01:58:17.419000000
    FromStats_FrameCount                     : 665383
    FromStats_StreamSize                     : 1338750596

    Text #1
    ID                                       : 4
    Format                                   : PGS
    Muxing mode                              : zlib
    Codec ID                                 : S_HDMV/PGS
    Codec ID/Info                            : Picture based subtitle format used on BDs/HD-DVDs
    Title                                    : PGS-Forzados
    Language                                 : Spanish
    Default                                  : Yes
    Forced                                   : No
    Statistics Tags Issue                    : mkvmerge v15.0.0 ('Duel with the Devil') 64-bit 2017-11-20 03:14:26 / mkvmerge v15.0.0 ('Duel with the Devil') 64-bit 2017-11-20 03:14:26 / UTC 2017-11-19T20:28:51Z
    FromStats_BitRate                        : 2780
    FromStats_Duration                       : 01:14:08.193000000
    FromStats_FrameCount                     : 152
    FromStats_StreamSize                     : 1545831

    Text #2
    ID                                       : 5
    Format                                   : PGS
    Muxing mode                              : zlib
    Codec ID                                 : S_HDMV/PGS
    Codec ID/Info                            : Picture based subtitle format used on BDs/HD-DVDs
    Title                                    : PGS
    Language                                 : English
    Default                                  : No
    Forced                                   : No
    Statistics Tags Issue                    : mkvmerge v15.0.0 ('Duel with the Devil') 64-bit 2017-11-20 03:14:26 / mkvmerge v15.0.0 ('Duel with the Devil') 64-bit 2017-11-20 03:14:26 / UTC 2017-11-19T20:28:51Z
    FromStats_BitRate                        : 25637
    FromStats_Duration                       : 01:50:16.902000000
    FromStats_FrameCount                     : 2263
    FromStats_StreamSize                     : 21204740

    Text #3
    ID                                       : 6
    Format                                   : PGS
    Muxing mode                              : zlib
    Codec ID                                 : S_HDMV/PGS
    Codec ID/Info                            : Picture based subtitle format used on BDs/HD-DVDs
    Title                                    : PGS
    Language                                 : Spanish
    Default                                  : No
    Forced                                   : No
    Statistics Tags Issue                    : mkvmerge v15.0.0 ('Duel with the Devil') 64-bit 2017-11-20 03:14:26 / mkvmerge v15.0.0 ('Duel with the Devil') 64-bit 2017-11-20 03:14:26 / UTC 2017-11-19T20:28:51Z
    FromStats_BitRate                        : 23538
    FromStats_Duration                       : 01:50:26.495000000
    FromStats_FrameCount                     : 2004
    FromStats_StreamSize                     : 19497212

    Menu
    00:00:00.000                             : :(01)00:00:00:000
    00:06:28.138                             : :(02)00:06:28:137
    00:08:34.806                             : :(03)00:08:34:805
    00:11:38.489                             : :(04)00:11:38:489
    00:13:38.318                             : :(05)00:13:38:317
    00:19:43.265                             : :(06)00:19:43:265
    00:25:40.998                             : :(07)00:25:40:997
    00:29:15.420                             : :(08)00:29:15:420
    00:36:36.277                             : :(09)00:36:36:277
    00:43:56.717                             : :(10)00:43:56:717
    00:48:27.696                             : :(11)00:48:27:696
    00:51:52.192                             : :(12)00:51:52:192
    01:02:01.426                             : :(13)01:02:01:426
    01:10:01.614                             : :(14)01:10:01:614
    01:18:44.887                             : :(15)01:18:44:886
    01:23:59.993                             : :(16)01:23:59:993
    01:31:40.120                             : :(17)01:31:40:119
    01:38:39.247                             : :(18)01:38:39:246
    01:45:13.265                             : :(19)01:45:13:265
    01:51:33.854                             : :(20)01:51:33:853

     

  • Peso: 6.28 GiB

Sinopsis

Un hombre amnésico es rescatado por la tripulación de un barco pesquero italiano cuando flota a la deriva en el mar. Carece de identidad y de pasado, pero posee unas serie de talentos extraordinarios en artes lingüísticas, marciales y de autodefensa que sugieren una profesión de riesgo. Confuso y desorientado, emprende una frenética búsqueda para descubrir quién es y por qué su vida ha tomado un giro tan peligroso.

 

Pelicula Arreglada

Una disculpa

Ficha técnica

Video trailer de la película

Enlaces de descarga

Rip de Bluray

Descargar The Bourne Identity: El caso Bourne (2002) Full 1080p Latino




Aportes de DPeliculasHDmega la pass es:dpeliculashdmega.org Aportes de CinemaniaHD la pass es:cinemaniahdd.com

Películas relacionadas

  • Poseído (2018) WEB-DL 1080p Latino

    2018
    Poseído (2018) WEB-DL 1080p Latino

    0.0 1h 27m 2018

    Mary está embarazada de gemelos, pero, en el parto, uno de los bebés muere. Diagnosticada con depresión...

    Director: Brandon Christensen

    Género: Suspense

    Actores: Sheila McCarthy

  • La favorita (2018) 1080p Latino

    2018
    La favorita (2018) 1080p Latino

    0.0 2h 0m 2018

    Descargar La favorita (2018) 1080p Latino, Mega, Google Drive, Torrent. Principios del siglo XVIII. Inglaterra...

    Director: Yorgos Lanthimos

    Género: Comedia

    Actores: Wilson Radjou-Pujalte

  • Painless (2017) WEB-DL 1080p Latino

    2017
    Painless (2017) WEB-DL 1080p Latino

    0.0 1h 21m 2017

    Henry Long busca desesperadamente una cura para la afección que lo deja incapaz de sentir dolor físico.

    Director: Jordan Horowitz

    Género: Drama

    Actores: Valeria Sistrunk

  • Suburra (2019) Temporada 2 NF 1080p Latino

    2017
    Suburra (2019) Temporada 2 NF 1080p Latino

    0.0 0h 52m 2017

    Suburra (2019) Temporada 2 NF 1080p Latino, En 2008, una lucha por la tierra en una ciudad costera cerca...

    Director: Daniele Cesarano

    Género: Crimen

    Actores: Giacomo Ferrara

Comentarios 6
  • leonidas2016 - 22 noviembre, 2017

    lo mejor de lo mejor,bajando las tres, el audio anda de diez ahora,ya la mire toda, exelente ,gracias

  • Jorge - 19 noviembre, 2017

    El Audio esta DECENCRONIZADO apartir de 1:19:48 por favor SOLUCIONENLO

    • Dpelis2 pelis2 - 20 noviembre, 2017

      Arreglado Disculpa…

      • Jorge - 21 noviembre, 2017

        Muchas gracias Admi.

  • Josue Joel Gomez - 19 noviembre, 2017

    el audio esta mal va muy edalantado

    • Dpelis2 pelis2 - 20 noviembre, 2017

      Arreglado Una Disculpa