Un Jefe en Pañales (2017) Full HD 1080p Latino

7.014 vistas
1 estrella2 estrellas3 estrellas4 estrellas5 estrellas (6 votos, promedio: 3,67 de 5)
Cargando...

Información de Un Jefe en Pañales (2017) Full HD 1080p Latino

Datos de la película

  • Calidad: Full 1080p
  • Audio: Español Latino AC3 5.1 BLURAY - Ingles DTS 5.1 BLURAY
  • Subtitulos: Español Latino PGS - Ingles PGS
  • Resolución: 1920x1080p
  • Formato: MKV
  • Codec: H.264
  • Encoder: CinefiloCool
  • Mediainfo: Clic para Mostrar Datos Ver
  • Un Jefe En Pañales (2017) Full HD 1080p Latino-CMHDD.mkv
    Format                      : Matroska
    Format version              : Version 4
    File size                   : 4.51 GiB
    Duration                    : 1 h 37 min
    Overall bit rate            : 6 625 kb/s
    Movie name                  : The Boss Baby (2017) CinemaniaHDD.Net
    Encoded date                : UTC 2021-07-04 21:26:55
    Writing application         : mkvmerge v56.1.0 ('My Friend') 64-bit
    Writing library             : libebml v1.4.2 + libmatroska v1.6.4
    Attachments                 : CINEMANIAHD.png

    Video
    ID                          : 1
    Format                      : AVC
    Format/Info                 : Advanced Video Codec
    Format profile              : High@L4.1
    Format settings             : CABAC / 4 Ref Frames
    Format settings, CABAC      : Yes
    Format settings, Reference  : 4 frames
    Codec ID                    : V_MPEG4/ISO/AVC
    Duration                    : 1 h 37 min
    Bit rate                    : 4 641 kb/s
    Width                       : 1 920 pixels
    Height                      : 1 080 pixels
    Display aspect ratio        : 16:9
    Frame rate mode             : Constant
    Frame rate                  : 23.976 (24000/1001) FPS
    Color space                 : YUV
    Chroma subsampling          : 4:2:0
    Bit depth                   : 8 bits
    Scan type                   : Progressive
    Bits/(Pixel*Frame)          : 0.093
    Stream size                 : 3.16 GiB (70%)
    Title                       : Full HD1080p [CinemaniaHDD]
    Writing library             : x264 core 157 r2935 545de2f
    Encoding settings           : cabac=1 / ref=4 / deblock=1:0:0 / analyse=0x3:0x133 / me=tesa / subme=11 / psy=1 / psy_rd=1.00:0.00 / mixed_ref=1 / me_range=24 / chroma_me=1 / trellis=2 / 8x8dct=1 / cqm=0 / deadzone=21,11 / fast_pskip=0 / chroma_qp_offset=-2 / threads=24 / lookahead_threads=6 / sliced_threads=0 / nr=0 / decimate=1 / interlaced=0 / bluray_compat=0 / constrained_intra=0 / bframes=16 / b_pyramid=2 / b_adapt=2 / b_bias=0 / direct=3 / weightb=1 / open_gop=0 / weightp=2 / keyint=240 / keyint_min=24 / scenecut=40 / intra_refresh=0 / rc_lookahead=60 / rc=crf / mbtree=1 / crf=18.0 / qcomp=0.60 / qpmin=0 / qpmax=69 / qpstep=4 / vbv_maxrate=62500 / vbv_bufsize=78125 / crf_max=0.0 / nal_hrd=none / filler=0 / ip_ratio=1.40 / aq=1:1.00
    Default                     : Yes
    Forced                      : Yes
    Color range                 : Limited
    Color primaries             : BT.709
    Transfer characteristics    : BT.709
    Matrix coefficients         : BT.709

    Audio #1
    ID                          : 2
    ID in the original source m : 4354 (0x1102)
    Format                      : AC-3
    Format/Info                 : Audio Coding 3
    Commercial name             : Dolby Digital
    Codec ID                    : A_AC3
    Duration                    : 1 h 37 min
    Bit rate mode               : Constant
    Bit rate                    : 448 kb/s
    Channel(s)                  : 6 channels
    Channel layout              : L R C LFE Ls Rs
    Sampling rate               : 48.0 kHz
    Frame rate                  : 31.250 FPS (1536 SPF)
    Compression mode            : Lossy
    Stream size                 : 312 MiB (7%)
    Title                       : Español Latino [CinemaniaHDD]
    Language                    : Spanish
    Service kind                : Complete Main
    Default                     : Yes
    Forced                      : Yes
    Original source medium      : Blu-ray

    Audio #2
    ID                          : 3
    Format                      : DTS ES
    Format/Info                 : Digital Theater Systems
    Commercial name             : DTS-ES Matrix
    Codec ID                    : A_DTS
    Duration                    : 1 h 37 min
    Bit rate mode               : Constant
    Bit rate                    : 1 509 kb/s
    Channel(s)                  : 6 channels
    Channel(s)_Original         : 7 channels
    ChannelLayout_Original      : C L R Ls Rs Cs LFE
    Sampling rate               : 48.0 kHz
    Frame rate                  : 93.750 FPS (512 SPF)
    Bit depth                   : 24 bits
    Compression mode            : Lossy
    Stream size                 : 1.03 GiB (23%)
    Title                       : Ingles [CinemaniaHDD]
    Language                    : English
    Default                     : No
    Forced                      : No

    Text #1
    ID                          : 4
    ID in the original source m : 4610 (0x1202)
    Format                      : PGS
    Muxing mode                 : zlib
    Codec ID                    : S_HDMV/PGS
    Codec ID/Info               : Picture based subtitle format used on BDs/HD-DVDs
    Duration                    : 1 h 36 min
    Bit rate                    : 36.9 kb/s
    Count of elements           : 3150
    Stream size                 : 25.5 MiB (1%)
    Title                       : Español-PGS [CinemaniaHDD]
    Language                    : Spanish
    Default                     : No
    Forced                      : No
    Original source medium      : Blu-ray

    Text #2
    ID                          : 5
    ID in the original source m : 4608 (0x1200)
    Format                      : PGS
    Muxing mode                 : zlib
    Codec ID                    : S_HDMV/PGS
    Codec ID/Info               : Picture based subtitle format used on BDs/HD-DVDs
    Duration                    : 1 h 36 min
    Bit rate                    : 37.6 kb/s
    Count of elements           : 3148
    Stream size                 : 26.0 MiB (1%)
    Title                       : Ingles-PGS [CinemaniaHDD]
    Language                    : English
    Default                     : No
    Forced                      : No
    Original source medium      : Blu-ray

    Text #3
    ID                          : 6
    Format                      : UTF-8
    Codec ID                    : S_TEXT/UTF8
    Codec ID/Info               : UTF-8 Plain Text
    Duration                    : 1 h 19 min
    Bit rate                    : 0 b/s
    Count of elements           : 18
    Stream size                 : 277 Bytes (0%)
    Title                       : Forzados-SRT [CinemaniaHDD]
    Language                    : Spanish
    Default                     : Yes
    Forced                      : No

    Text #4
    ID                          : 7
    Format                      : UTF-8
    Codec ID                    : S_TEXT/UTF8
    Codec ID/Info               : UTF-8 Plain Text
    Duration                    : 1 h 36 min
    Bit rate                    : 59 b/s
    Count of elements           : 1570
    Stream size                 : 41.7 KiB (0%)
    Title                       : Español-SRT [CinemaniaHDD]
    Language                    : Spanish
    Default                     : No
    Forced                      : No

    Menu
    00:00:00.000                : Chapter 01
    00:03:45.892                : Chapter 02
    00:08:58.287                : Chapter 03
    00:11:45.913                : Chapter 04
    00:14:59.565                : Chapter 05
    00:19:38.218                : Chapter 06
    00:22:52.788                : Chapter 07
    00:28:27.247                : Chapter 08
    00:30:26.115                : Chapter 09
    00:33:45.481                : Chapter 10
    00:36:57.256                : Chapter 11
    00:39:18.356                : Chapter 12
    00:42:35.344                : Chapter 13
    00:46:20.611                : Chapter 14
    00:51:37.719                : Chapter 15
    00:53:25.285                : Chapter 16
    00:56:28.718                : Chapter 17
    00:59:35.405                : Chapter 18
    01:04:03.172                : Chapter 19
    01:08:15.758                : Chapter 20
    01:11:29.910                : Chapter 21
    01:16:25.247                : Chapter 22
    01:23:10.110                : Chapter 23
    01:27:36.960                : Chapter 24

  • Peso: 4.51 GB

Sinopsis

Descargar Un Jefe en Pañales (2017) Full HD 1080p Latino. La llegada de un hermanito trastoca por completo la idílica vida del pequeño Tim, hasta entonces hijo único de 7 años y el ojito derecho de sus padres. Su nuevo hermano es un peculiar bebé, que viste traje y corbata y lleva maletín. Tim comienza a sospechar de él, hasta que descubre que puede hablar.

RESUBIDO NUEVO RIP VERSION PLACEBO!!!

Ficha técnica

Video trailer de la película

Enlaces de descarga

Rip de Bluray

Descargar Un Jefe en Pañales (2017) Full HD 1080p Latino




Aportes de DPeliculasHDmega la pass es:dpeliculashdmega.org Aportes de CinemaniaHD la pass es:cinemaniahdd.com

Películas relacionadas

Un Jefe en Pañales (2017) Full HD 1080p Latino pelicula full hd, Un Jefe en Pañales (2017) Full HD 1080p Latino mega latino, Un Jefe en Pañales (2017) Full HD 1080p Latino 4k latino, Un Jefe en Pañales (2017) Full HD 1080p Latino pelicula completa, Un Jefe en Pañales (2017) Full HD 1080p Latino descargar gratis, descargar Un Jefe en Pañales (2017) Full HD 1080p Latino pelicula latino, Un Jefe en Pañales (2017) Full HD 1080p Latino 1 link mega, Un Jefe en Pañales (2017) Full HD 1080p Latino 1 link google drive, Un Jefe en Pañales (2017) Full HD 1080p Latino hd 1080p latino.
Comentarios 11
  • Tio Higuera - 29 enero, 2018

    Muy buena.

  • gabo - 23 julio, 2017

    ninguna peli vale descargar sale error 404. por fa arreglen. ninguna peli se puede descargar

    • dpelis - 24 julio, 2017

      borre cache porfavor

  • Miguel Angel - 18 julio, 2017

    Estimados Amigos
    No se si podrian por favor habilitar nuevamente MEGA para poder descargar con el Megadowloader, hasta el momento yo y varioas amigos q vemos diariamente su pagina no hemos tenido problemas con este servidor.
    Vean esa posibilidad por favor, si no se puede ni modo recurrimos a otro servidor…..Gracias… son lo maximo…

    • dpelis - 18 julio, 2017

      usen google drive mejor que mega

      • Miguel Ángel - 20 julio, 2017

        Ok muchas gracias
        Entonces Google drive

  • Jhefferson - 13 julio, 2017

    Muvhas gracias por este gran aporte esta genial tanto la calidad de audio como video «Gran Pagina»

  • Pablo Meza Abello - 11 julio, 2017

    me dice, haz click en un anuncio y espera 30 segundo, y podras ver los link durante 48 horas.. pero no me aparece ningun anuncio y si tengo desbloqueado el adblock

  • Héctor Rodrigo - 11 julio, 2017

    Gracias por la película.
    PD: Cuando sale el BD Español Latino de: Kong: Isla Calavera (Carátula Gris)

    • dpelis - 12 julio, 2017

      que lanze USA bluray